<?xml version="1.0" standalone="no"?>
<!DOCTYPE svg PUBLIC "-//W3C//DTD SVG 1.1//EN" "http://www.w3.org/Graphics/SVG/1.1/DTD/svg11.dtd" >
<svg xmlns="http://www.w3.org/2000/svg">
<metadata>Generated by IcoMoon</metadata>
<defs>
<font id="distilld" horiz-adv-x="1024">
<font-face units-per-em="1024" ascent="960" descent="-64" />
<missing-glyph horiz-adv-x="1024" />
<glyph unicode="&#x20;" horiz-adv-x="512" d="" />
<glyph unicode="&#xe900;" glyph-name="series" d="M571.374 751.653h-117.588v46.206c0 0.003 0 0.007 0 0.010 0 18.459 14.731 33.478 33.081 33.94l0.042 0.001h49.685c0.003 0 0.007 0 0.010 0 18.293 0 33.123-14.829 33.123-33.123 0-0.291-0.003-0.582-0.011-0.872l0.001 0.042zM837.849 705.281v0l-1.491 130.009h-108.976v-130.009h-1.656c-40.098-4.803-73.809-28.43-92.427-61.656l-0.317-0.616c57.182-17.509 98.047-69.828 98.047-131.69 0-0.283-0.001-0.565-0.002-0.846v0.043-455.278h197.58c14.635 0.446 26.385 12.194 26.829 26.787l0.001 0.041v475.483c0 78.337-51.672 142.429-117.588 147.73zM586.775 630.919c-9.266 2.060-16.159 10.025-16.561 19.666l-0.001 0.042v79.661h-117.588v-80.159c-0.34-4.645-1.587-8.927-3.564-12.772l0.087 0.186c-2.964-3.84-7.335-6.469-12.328-7.112l-0.093-0.010c-64.961-11.11-113.782-66.998-113.782-134.287 0-0.359 0.001-0.716 0.004-1.074v0.054-405.925c0-0.004 0-0.010 0-0.014 0-17.945 14.268-32.556 32.079-33.107l0.051-0.001h311.855c18.293 0 33.123 14.829 33.123 33.123v0 405.925c0.007 0.518 0.011 1.128 0.011 1.739 0 67.084-48.58 122.821-112.48 133.949l-0.812 0.117zM837.849 858.475h-110.465v46.206c-0.001 0.099-0.002 0.216-0.002 0.333 0 16.556 13.421 29.975 29.975 29.975 0.117 0 0.234-0.001 0.351-0.002h48.011c0.198 0.004 0.431 0.008 0.664 0.008 16.556 0 29.975-13.421 29.975-29.975 0-0.119-0.001-0.238-0.002-0.356v0.018-46.206zM68.564 557.551v-475.483c0.356-14.614 12.065-26.38 26.622-26.829l0.042-0.001h197.745v455.94c-0.002 0.29-0.003 0.633-0.003 0.977 0 61.771 40.793 114.014 96.911 131.259l0.973 0.257c-18.845 33.858-52.517 57.5-92.002 62.215l-0.577 0.055h-1.822v129.346h-108.645l-1.656-130.009c-65.914-5.3-117.588-69.393-117.588-147.73zM187.807 858.475v46.206c-0.001 0.099-0.002 0.216-0.002 0.333 0 16.556 13.421 29.975 29.975 29.975 0.117 0 0.234-0.001 0.351-0.002h48.011c0.099 0.001 0.216 0.002 0.333 0.002 16.556 0 29.975-13.421 29.975-29.975 0-0.117-0.001-0.234-0.002-0.351v0.018-46.206h-108.645zM29.975 22.777h964.050c16.556 0 29.975-13.421 29.975-29.975v-1.822c0-16.556-13.421-29.975-29.975-29.975h-964.050c-16.556 0-29.975 13.421-29.975 29.975v1.822c0 16.556 13.421 29.975 29.975 29.975z" />
<glyph unicode="&#xe901;" glyph-name="star-outline" d="M432.396 891.34c33.772 64.010 125.442 64.011 159.214 0l114.937-217.846 242.702-41.994c71.315-12.338 99.641-99.525 49.204-151.423l-171.672-176.631 35.063-243.8c10.301-71.639-63.862-125.523-128.809-93.587l-221.037 108.683-221.031-108.683c-64.946-31.936-139.112 21.948-128.81 93.587l35.060 243.8-171.667 176.626c-50.441 51.902-22.112 139.089 49.201 151.427l242.702 41.994 114.939 217.846zM626.939 631.494l-114.937 217.846-114.935-217.846c-13.024-24.685-36.762-41.932-64.263-46.69l-242.702-41.994 171.667-176.63c19.452-20.014 28.518-47.922 24.545-75.545l-35.060-243.8 221.031 108.683c25.049 12.313 54.388 12.313 79.434 0l221.037-108.683-35.063 243.8c-3.974 27.624 5.095 55.531 24.545 75.545l171.667 176.63-242.702 41.994c-27.497 4.758-51.238 22.005-64.262 46.69z" />
<glyph unicode="&#xe902;" glyph-name="heart-outline" d="M289.392 824.167c-123.981 0-200.348-105.687-200.348-222.609 0-135.845 76.847-253.529 171.686-346.565 94.297-92.507 200.836-155.086 247.499-180.193 1.536-0.828 2.739-1.474 3.771-2.022 1.033 0.548 2.235 1.193 3.771 2.022 46.663 25.106 153.204 87.685 247.5 180.193 94.841 93.037 171.685 210.721 171.685 346.565 0 116.922-76.368 222.609-200.348 222.609-76.199 0-140.991-49.406-181.27-150.1-6.763-16.903-23.134-27.987-41.338-27.987s-34.575 11.083-41.338 27.987c-40.279 100.695-105.073 150.1-181.27 150.1zM0.001 601.558c0 150.208 101.72 311.652 289.391 311.652 95.166 0 170.575-49.179 222.609-126.806 52.033 77.628 127.444 126.806 222.609 126.806 187.673 0 289.391-161.443 289.391-311.652 0-170.518-96.091-309.791-198.372-410.13-102.823-100.873-217.586-168.096-267.665-195.041-0.503-0.275-1.033-0.561-1.58-0.86-6.611-3.588-16.188-8.789-28.37-11.224-10.088-2.017-21.94-2.017-32.029 0-12.181 2.435-21.758 7.636-28.37 11.224-0.548 0.299-1.078 0.583-1.58 0.86-50.076 26.945-164.84 94.168-267.663 195.041-102.281 100.339-198.372 239.612-198.372 410.13z" />
<glyph unicode="&#xe903;" glyph-name="share" d="M213.333 661.333c117.803 0 213.333-95.531 213.333-213.333s-95.531-213.333-213.333-213.333-213.333 95.531-213.333 213.333 95.531 213.333 213.333 213.333zM687.871 146.56c-3.115-12.843-5.205-26.069-5.205-39.893 0-94.251 76.416-170.667 170.667-170.667s170.667 76.416 170.667 170.667-76.416 170.667-170.667 170.667c-49.707 0-94.037-21.589-125.227-55.509l-234.155 124.885c-9.813-27.136-23.424-52.437-40.235-75.264l234.155-124.885zM1023.999 789.333c0 94.251-76.416 170.667-170.667 170.667s-170.667-76.416-170.667-170.667c0-13.824 2.091-27.051 5.205-39.893l-234.155-124.885c16.853-22.827 30.421-48.085 40.235-75.264l234.155 124.885c31.189-33.92 75.52-55.509 125.227-55.509 94.251 0 170.667 76.416 170.667 170.667z" />
<glyph unicode="&#xe904;" glyph-name="shelf" d="M249.661 677.687h-91.951v36.223c0 14.619 11.851 26.471 26.471 26.471v0h39.010c14.619 0 26.471-11.851 26.471-26.471v0zM250.775 536.278c0 0.020 0 0.045 0 0.070 0 16.783 3.065 32.849 8.667 47.67l-0.307-0.928c-5.312 2.577-8.985 7.788-9.332 13.888l-0.002 0.044v62.694h-91.951v-62.694c-0.297-3.607-1.294-6.922-2.854-9.894l0.067 0.141c-2.282-3.063-5.739-5.141-9.691-5.567l-0.062-0.005c-50.89-8.599-89.168-52.343-89.168-105.029 0-0.3 0.001-0.6 0.003-0.9v0.046-317.649c-0.001-0.090-0.002-0.196-0.002-0.303 0-14.074 11.101-25.555 25.024-26.167l0.055-0.002h169.552zM18.947 108.008h985.967c0.343 0.024 0.744 0.037 1.146 0.037 9.547 0 17.355-7.444 17.938-16.843l0.002-0.052c-0.585-9.451-8.393-16.894-17.94-16.894-0.404 0-0.804 0.013-1.2 0.039l0.054-0.002h-985.967c-0.302-0.018-0.654-0.028-1.008-0.028-9.544 0-17.35 7.438-17.937 16.834l-0.002 0.052c0.59 9.447 8.396 16.886 17.939 16.886 0.354 0 0.707-0.010 1.056-0.031l-0.048 0.002zM667.341 677.687h-91.951v36.223c0 14.619 11.851 26.471 26.471 26.471v0h39.010c14.619 0 26.471-11.851 26.471-26.471v0zM876.321 642.021v0l-1.393 101.703h-84.986v-101.703h-1.393c-31.337-3.793-57.67-22.289-72.198-48.279l-0.249-0.483c44.689-13.679 76.626-54.564 76.626-102.908 0-0.066 0-0.133 0-0.199v0.010-356.659h154.645c11.418 0.303 20.596 9.479 20.898 20.87l0.001 0.028v371.984c0 61.301-40.402 111.456-91.951 115.635zM679.881 583.507c-7.072 1.716-12.286 7.877-12.538 15.298l-0.001 0.027v62.694h-91.951v-62.694c-0.297-3.607-1.294-6.922-2.854-9.894l0.067 0.141c-2.282-3.063-5.739-5.141-9.691-5.567l-0.062-0.005c-50.89-8.599-89.168-52.343-89.168-105.029 0-0.3 0.001-0.6 0.003-0.9v0.046-317.649c-0.001-0.090-0.002-0.196-0.002-0.303 0-14.074 11.101-25.555 25.024-26.167l0.055-0.002h243.81c14.619 0 26.471 11.851 26.471 26.471v0 317.649c0.002 0.253 0.003 0.554 0.003 0.853 0 52.685-38.278 96.431-88.541 104.942l-0.627 0.087zM876.321 761.279h-86.379v36.78c0 0.041 0 0.091 0 0.14 0 13.004 10.541 23.545 23.545 23.545 0.049 0 0.099 0 0.147-0.001h37.609c0.041 0 0.091 0 0.14 0 13.004 0 23.545-10.541 23.545-23.545 0-0.049 0-0.099-0.001-0.147v0.008-36.78zM274.46 526.386v-371.984c0.303-11.418 9.479-20.596 20.87-20.898l0.028-0.001h154.645v356.659c0 0.056 0 0.122 0 0.188 0 48.345 31.937 89.23 75.865 102.707l0.761 0.201c-14.777 26.473-41.109 44.968-71.988 48.716l-0.459 0.045h-1.393v101.703h-84.986l-1.393-101.703c-51.548-4.18-91.951-54.335-91.951-115.635zM367.803 761.279v36.78c0 0.041 0 0.091 0 0.14 0 13.004 10.541 23.545 23.545 23.545 0.049 0 0.099 0 0.147-0.001h37.609c0.041 0 0.091 0 0.14 0 13.004 0 23.545-10.541 23.545-23.545 0-0.049 0-0.099-0.001-0.147v0.008-36.78h-84.986z" />
<glyph unicode="&#xe905;" glyph-name="distillery" d="M852.668 353.926l74.717-74.717c8.253-8.253 8.253-21.634 0-29.887l-0.226-0.226c-8.253-8.253-21.634-8.253-29.887 0l-74.717 74.717c-8.253 8.253-8.253 21.634 0 29.887l0.226 0.226c8.253 8.253 21.634 8.253 29.887 0zM910.139 171.348c-16.606 37.048-38.115 68.809-64.173 96.201l0.133-0.141c-48.072 50.511-109.456 87.929-178.531 106.644l-2.703 0.623c19.806 21.619 31.961 50.53 32.020 82.279v0.012c0 0.021 0 0.046 0 0.071 0 58.109-39.589 106.973-93.266 121.090l-0.873 0.195-29.138 234.066h290.742c0-11.495 9.318-20.813 20.813-20.813s20.813 9.318 20.813 20.813v0 126.799c0 11.495-9.318 20.813-20.813 20.813s-20.813-9.318-20.813-20.813v0h-303.23c-0.034 0-0.073 0-0.113 0-64.826 0-118.231-48.893-125.352-111.814l-0.053-0.576-25.616-247.835c-52.084-15.821-89.337-63.417-89.337-119.714 0-0.127 0-0.254 0.001-0.381v0.020c0.059-31.762 12.214-60.673 32.103-82.382l-0.083 0.091c-71.682-19.311-132.969-56.735-180.754-107.098l-0.159-0.169c-26.176-27.719-47.731-60.152-63.21-95.832l-0.831-2.149c-9.678-19.821-15.91-42.968-17.27-67.415l-0.021-0.467c0.757-58.551 17.452-113.050 45.929-159.549l-0.78 1.37 6.724-9.286h732.939l6.724 9.286c27.696 45.129 44.391 99.628 45.146 157.97l0.002 0.209c-1.429 24.895-7.536 48.031-17.452 69.015l0.481-1.133zM612.353 207.211c-0.004-57.824-46.881-104.697-104.705-104.697-57.827 0-104.705 46.878-104.705 104.705 0 57.377 46.151 103.975 103.357 104.696l0.068 0.001c0.285 0.003 0.623 0.004 0.961 0.004 57.893 0 104.846-46.841 105.025-104.692v-0.017z" />
<glyph unicode="&#xe906;" glyph-name="bottle" d="M335.011 838.347h57.614c22.205 0 40.206-18.001 40.206-40.206v0-52.848h-138.026v52.848c0 22.205 18.001 40.206 40.206 40.206v0zM743.285 692.861h-1.658v151.496h-127.249v-150.875h-1.658c-46.707-5.64-86.081-32.751-108.433-71.019l-0.371-0.688c66.659-19.991 114.4-80.79 114.4-152.74 0-0.073 0-0.146 0-0.219v0.012-530.548h230.25c17.398 0 31.501 14.104 31.501 31.501v0 550.859c0.207 90.774-60.308 165.175-136.782 172.221zM450.862 602.916c-10.957 2.294-19.068 11.876-19.068 23.352 0 0.096 0.001 0.193 0.002 0.289v-0.015 93.468h-136.989v-93.468c-0.032-5.722-1.976-10.984-5.224-15.187l0.043 0.058c-3.346-4.276-8.085-7.326-13.527-8.47l-0.151-0.027c-75.26-13.121-131.782-77.85-132.015-155.824v-472.545c0-0.062-0.001-0.135-0.001-0.208 0-21.102 17.048-38.223 38.123-38.34h362.276c21.289 0 38.548 17.258 38.548 38.548v0 472.52c0 0.124 0.001 0.271 0.001 0.418 0 77.987-56.678 142.735-131.090 155.301l-0.926 0.129zM650.439 960h55.335c19.916 0 36.061-16.145 36.061-36.061v0-53.884h-127.456v53.469c-0.002 0.123-0.002 0.269-0.002 0.414 0 19.916 16.145 36.061 36.061 36.061 0.001 0 0.002 0 0.003 0v0z" />
<glyph unicode="&#xe907;" glyph-name="filter" d="M532.596 411.355c-14.325 8.381-23.805 23.676-23.847 41.187v230.448c0.004 17.556 9.493 32.895 23.622 41.171l0.225 0.122 199.464 115.154c6.84 4.020 15.066 6.395 23.847 6.395s17.007-2.375 24.072-6.516l-0.225 0.122 134.093-77.411 60.031 85.836c8.13 11.409 12.998 25.634 12.998 40.995 0 39.291-31.852 71.143-71.143 71.143-0.092 0-0.185 0-0.277-0.001h-806.831c-0.135 0.001-0.295 0.001-0.456 0.001-39.236 0-71.044-31.807-71.044-71.044 0-15.407 4.905-29.67 13.238-41.31l-0.146 0.214 289.744-414.584c1.376-1.833 2.502-3.956 3.27-6.243l0.046-0.158c0.633-2.068 0.998-4.446 0.998-6.909 0-0.136-0.001-0.272-0.003-0.408v0.020-433.82c0-0.052 0-0.115 0-0.177 0-9.196 2.462-17.816 6.763-25.239l-0.129 0.242c8.799-14.812 24.717-24.585 42.916-24.585 9.621 0 18.604 2.731 26.217 7.46l-0.212-0.122 236.213 144.375c14.381 8.693 23.849 24.245 23.849 42.007 0 0.133-0.001 0.267-0.002 0.4v-0.020 196.214zM732.99 607.503l-59.998 34.659-14.825 69.651c-2.065 10.709-11.363 18.687-22.524 18.687-12.657 0-22.918-10.261-22.918-22.918 0-1.9 0.231-3.746 0.667-5.512l-0.033 0.157 6.202-29.121-28.69 16.583c-3.288 1.926-7.241 3.063-11.459 3.063-12.682 0-22.963-10.281-22.963-22.963 0-8.464 4.579-15.858 11.395-19.841l0.109-0.059 28.69-16.583-28.358-9.187c-9.629-2.859-16.532-11.628-16.532-22.010 0-12.657 10.261-22.918 22.918-22.918 2.777 0 5.439 0.494 7.902 1.399l-0.159-0.051 67.66 21.923 59.998-34.626-59.998-34.659-67.66 21.923c-1.912 0.576-4.11 0.908-6.385 0.908-12.657 0-22.918-10.261-22.918-22.918 0-9.88 6.252-18.3 15.015-21.519l0.159-0.051 28.358-9.187-28.822-16.616c-6.885-4.069-11.43-11.454-11.43-19.9 0-12.723 10.314-23.038 23.038-23.038 4.277 0 8.283 1.166 11.715 3.197l-0.107-0.059 28.69 16.583-6.202-29.121c-0.403-1.608-0.634-3.454-0.634-5.355 0-12.657 10.261-22.918 22.918-22.918 11.161 0 20.459 7.979 22.501 18.543l0.023 0.144 14.825 69.651 59.998 34.659v-69.252l-52.834-47.627c-4.653-4.211-7.563-10.273-7.563-17.014 0-12.658 10.261-22.919 22.919-22.919 5.916 0 11.309 2.242 15.375 5.922l-0.020-0.017 22.122 19.9v-33.167c-0.011-0.26-0.017-0.565-0.017-0.872 0-12.657 10.261-22.918 22.918-22.918s22.918 10.261 22.918 22.918c0 0.307-0.006 0.612-0.018 0.915l0.001-0.044v33.167l22.122-19.9c4.047-3.663 9.439-5.905 15.356-5.905 12.658 0 22.919 10.261 22.919 22.919 0 6.741-2.911 12.803-7.544 16.997l-0.020 0.017-53 47.627v69.285l59.998-34.659 14.858-69.651c2.501-10.152 11.527-17.563 22.283-17.563 12.657 0 22.918 10.261 22.918 22.918 0 1.496-0.143 2.958-0.417 4.374l0.023-0.144-6.235 29.088 28.69-16.583c3.292-1.931 7.251-3.072 11.475-3.072 12.687 0 22.971 10.285 22.971 22.971 0 8.462-4.575 15.855-11.387 19.841l-0.109 0.059-28.69 16.583 28.325 9.187c9.275 3.079 15.847 11.675 15.847 21.807 0 12.662-10.265 22.927-22.927 22.927-2.531 0-4.966-0.41-7.243-1.168l0.162 0.047-67.66-21.923-59.965 34.659 59.965 34.626 67.66-21.923c1.912-0.576 4.11-0.908 6.385-0.908 12.657 0 22.918 10.261 22.918 22.918 0 9.88-6.252 18.3-15.015 21.519l-0.159 0.051-28.325 9.187 28.69 16.583c6.92 4.044 11.496 11.438 11.496 19.9 0 12.687-10.285 22.971-22.971 22.971-4.225 0-8.183-1.14-11.584-3.13l0.109 0.059-28.69-16.583 6.235 29.121c0.25 1.272 0.394 2.734 0.394 4.23 0 12.657-10.261 22.918-22.918 22.918-10.757 0-19.783-7.411-22.25-17.406l-0.033-0.157-14.858-69.651-59.998-34.659v69.285l52.868 47.727c4.653 4.211 7.563 10.273 7.563 17.014 0 12.658-10.261 22.919-22.919 22.919-5.916 0-11.309-2.242-15.375-5.922l0.020 0.017-22.122-19.9v33.167c0.011 0.26 0.017 0.565 0.017 0.872 0 12.657-10.261 22.918-22.918 22.918s-22.918-10.261-22.918-22.918c0-0.307 0.006-0.612 0.018-0.915l-0.001 0.044v-33.167l-22.122 19.9c-4.047 3.663-9.439 5.905-15.356 5.905-12.658 0-22.919-10.261-22.919-22.919 0-6.741 2.911-12.803 7.544-16.997l0.020-0.017 52.834-47.727z" />
<glyph unicode="&#xe908;" glyph-name="cask-strength" d="M829.527 593.96c-4.39 4.389-10.454 7.103-17.153 7.103s-12.762-2.715-17.153-7.103v0c-20.552-21.325-194.242-211.549-194.242-321.419-0.050-1.703-0.077-3.707-0.077-5.717 0-116.835 94.714-211.549 211.549-211.549s211.549 94.714 211.549 211.549c0 2.011-0.029 4.014-0.083 6.011l0.007-0.293c0 109.87-174.461 300.094-194.395 321.419zM631.732 107.97h-71.237c-8.013-48.113-18.164-89.755-31.009-130.199l1.803 6.577h133.203c0.207-0.003 0.451-0.004 0.696-0.004 25.468 0 47.573 14.394 58.624 35.49l0.173 0.364q4.79 10.045 10.663 23.642c-40.751 12.693-75.446 34.862-102.799 64.004l-0.117 0.126zM499.147 911.516h-194.704c-12.027-34.391-22.757-75.981-30.195-118.699l-0.709-4.923h255.898c-8.065 47.758-18.585 89.367-32.029 129.638l1.741-6.016zM587.227 447.932c0-36.777-0.927-71.083-2.318-103.379 48.367 119.913 181.261 264.398 199.341 283.869v0c1.958 1.863 4.197 3.46 6.639 4.716l0.16 0.076c-2.163 16.225-4.636 31.678-7.262 46.359h-208.303c7.481-68.019 11.75-146.897 11.75-226.772 0-1.711-0.003-3.42-0.005-5.129v0.265zM766.789 756.988h-729.989c-3.863-14.217-7.571-29.824-11.126-46.359h752.088c-3.090 16.534-7.262 31.987-10.972 46.359zM757.826 787.894c-10.446 34.468-21.941 63.555-35.46 91.479l1.619-3.708c-11.144 21.453-33.194 35.857-58.61 35.857-0.31 0-0.621-0.003-0.931-0.007h-133.156c11.071-33.905 21.221-75.55 28.446-118.191l0.76-5.432zM272.145 911.516h-133.048c-0.355 0.007-0.772 0.010-1.19 0.010-25.417 0-47.47-14.405-58.439-35.497l-0.172-0.365c-11.875-24.232-23.319-53.324-32.533-83.393l-1.154-4.378h197.332c8.099 48.23 18.247 89.87 31.036 130.336l-1.831-6.713zM273.999 107.97c8.18-47.676 18.908-89.264 32.639-129.461l-1.733 5.839h194.704c11.848 34.192 22.572 75.772 30.143 118.441l0.761 5.181zM247.265 447.932c-0.008-2.112-0.012-4.612-0.012-7.112 0-79.136 4.214-157.289 12.429-234.243l-0.828 9.565h285.723c7.484 67.757 11.753 146.326 11.753 225.891 0 2.074-0.003 4.149-0.009 6.222l0.001-0.321c0.005 1.786 0.008 3.902 0.008 6.018 0 79.524-4.269 158.051-12.59 235.366l0.837-9.592h-285.723c-7.387-67.352-11.601-145.458-11.601-224.548 0-2.548 0.004-5.093 0.013-7.638l-0.001 0.394zM45.761 107.97c10.403-34.533 21.795-63.627 35.177-91.586l-1.644 3.815c11.225-21.461 33.331-35.855 58.799-35.855 0.299 0 0.597 0.003 0.894 0.007h133.002c-10.93 33.712-21.076 75.351-28.4 117.955l-0.806 5.668zM583.21 185.234h-557.537c3.554-16.38 7.262-31.987 11.126-46.359h570.208c-8.939 13.332-16.941 28.606-23.239 44.734l-0.558 1.623zM216.36 447.932c-0.005 1.844-0.009 4.026-0.009 6.209 0 79.454 4.213 157.925 12.428 235.2l-0.829-9.617h-208.303c-12.496-67.637-19.643-145.465-19.643-224.964 0-2.4 0.007-4.799 0.020-7.197l-0.001 0.37c-0.016-2.336-0.023-5.098-0.023-7.862 0-79.137 7.149-156.604 20.836-231.79l-1.188 7.861h208.303c-7.385 67.727-11.598 146.279-11.598 225.815 0 2.1 0.003 4.201 0.009 6.3l-0.001-0.323z" />
<glyph unicode="&#xe909;" glyph-name="cask" d="M225.942 952.693c-0.244 0.003-0.534 0.004-0.823 0.004-27.753 0-51.846-15.665-63.921-38.636l-0.189-0.396c-12.882-26.338-25.338-58.006-35.396-90.727l-1.276-4.823h214.65c8.817 52.504 19.864 97.834 33.786 141.885l-1.993-7.308zM405.938 952.693c-12.974-37.308-24.65-82.577-32.837-129.048l-0.806-5.528h278.741c-8.993 52-20.67 97.267-35.556 141.053l1.912-6.477zM653.053 952.693c11.93-36.743 22.977-82.073 30.926-128.461l0.867-6.116h214.65c-11.386 37.592-23.841 69.259-38.465 99.687l1.793-4.139c-12.219 23.363-36.285 39.032-64.009 39.032-0.325 0-0.65-0.003-0.974-0.007h0.050zM114.748 784.473q-6.224-23.383-12.111-50.467h818.562c-3.7 17.999-7.738 34.821-11.944 50.467zM96.074 700.363c-13.603-73.654-21.383-158.402-21.383-244.969 0-2.589 0.007-5.176 0.021-7.762l-0.001 0.4c-0.013-2.187-0.020-4.773-0.020-7.362 0-86.567 7.78-171.318 22.679-253.59l-1.296 8.621h227.434c-8.149 73.39-12.797 158.483-12.797 244.662 0 2.695 0.004 5.389 0.014 8.083l-0.001-0.414c-0.009 2.278-0.013 4.973-0.013 7.669 0 86.179 4.648 171.273 13.708 255.045l-0.911-10.383zM357.153 700.363c-8.042-73.32-12.629-158.347-12.629-244.445 0-2.773 0.004-5.544 0.014-8.315l-0.001 0.429c-0.009-2.342-0.013-5.113-0.013-7.886 0-86.098 4.587-171.125 13.531-254.851l-0.901 10.405h311.208c8.042 73.32 12.629 158.347 12.629 244.445 0 2.773-0.004 5.544-0.014 8.315l0.001-0.429c0.009 2.342 0.013 5.113 0.013 7.886 0 86.098-4.587 171.125-13.531 254.851l0.901-10.405zM701.838 700.363c8.144-74.048 12.791-159.917 12.791-246.871 0-1.92-0.003-3.839-0.007-5.76v0.298c0.004-1.621 0.006-3.54 0.006-5.46 0-86.954-4.646-172.823-13.704-257.371l0.913 10.502h226.089c13.603 73.654 21.383 158.402 21.383 244.969 0 2.589-0.007 5.176-0.021 7.762l0.001-0.4c0.013 2.187 0.020 4.773 0.020 7.362 0 86.567-7.78 171.318-22.679 253.59l1.296-8.621zM103.476 162.056c3.7-17.999 7.738-34.821 11.944-50.467h793.833q6.393 23.551 12.111 50.467zM125.177 77.946c11.386-37.592 23.841-69.259 38.465-99.687l-1.793 4.139c12.221-23.36 36.283-39.027 64.005-39.027 0.031 0 0.061 0 0.092 0h144.833c-11.93 36.743-22.977 82.073-30.926 128.461l-0.867 6.116zM373.639 77.946c8.993-52 20.67-97.267 35.556-141.053l-1.912 6.477h210.612c12.974 37.308 24.65 82.577 32.837 129.048l0.806 5.528zM685.52 77.946c-8.787-52.538-19.777-97.874-33.622-141.946l1.996 7.369h143.997c0.255-0.003 0.558-0.006 0.86-0.006 27.696 0 51.73 15.674 63.717 38.635l0.189 0.396c12.956 26.362 25.468 58.028 35.566 90.753l1.275 4.797z" />
<glyph unicode="&#xe90a;" glyph-name="colouring" d="M88.282 196.612l377.583 377.583c4.408 4.381 10.484 7.089 17.191 7.089s12.783-2.708 17.194-7.089l-0.001 0.001 137.669-138.057c4.381-4.408 7.089-10.484 7.089-17.191s-2.708-12.783-7.089-17.194l-377.581-377.581c-21.484-21.647-51.192-35.106-84.045-35.293h-0.036c-20.474-0.864-38.73-9.698-51.875-23.456l-0.027-0.029-7.136-7.136c-12.31-13.689-30.079-22.258-49.851-22.258-36.976 0-66.954 29.975-66.954 66.954 0 19.255 8.128 36.611 21.138 48.825l0.036 0.032 7.915 7.915c13.81 13.156 22.651 31.423 23.48 51.751l0.005 0.148c0.294 32.998 13.83 62.78 35.545 84.332l0.007 0.007zM987.862 752.218l-212.406-212.277 8.563-8.823c8.887-8.76 14.393-20.93 14.393-34.385s-5.506-25.625-14.388-34.378l-0.005-0.005-17.126-17.387c-8.802-8.793-20.959-14.231-34.385-14.231s-25.582 5.439-34.385 14.231v0l-189.311 189.441c-8.768 8.839-14.188 21.012-14.188 34.45s5.419 25.611 14.192 34.454l-0.004-0.004 16.869 17.256c8.802 8.793 20.959 14.231 34.385 14.231s25.582-5.439 34.385-14.231v0l8.563-8.563 212.796 212.406c22.026 21.993 52.437 35.596 86.027 35.596 67.241 0 121.751-54.51 121.751-121.751 0-33.653-13.655-64.117-35.725-86.155l-0.001-0.001z" />
<glyph unicode="&#xe90b;" glyph-name="abv" d="M48.641 905.219c28.903 28.903 68.833 46.781 112.938 46.781 88.211 0 159.72-71.509 159.72-159.72 0-44.105-17.877-84.035-46.781-112.938v0c-28.951-28.799-68.866-46.601-112.938-46.601s-83.987 17.801-112.946 46.608l0.007-0.007c-28.647 29.020-46.341 68.913-46.341 112.938s17.694 83.919 46.358 112.956l-0.017-0.018zM230.492-14.244c-23.43-25.696-57.047-41.757-94.414-41.757-70.479 0-127.614 57.135-127.614 127.614 0 37.526 16.198 71.271 41.984 94.62l0.109 0.097 721.659 721.659c23.106 23.106 55.029 37.398 90.287 37.398 70.519 0 127.685-57.167 127.685-127.685 0-35.259-14.292-67.181-37.398-90.287l-721.659-721.659zM975.122 8.090c-28.951-28.799-68.866-46.601-112.938-46.601s-83.987 17.801-112.946 46.608l0.007-0.007c-28.781 28.853-46.58 68.675-46.58 112.653 0 88.099 71.418 159.518 159.518 159.518s159.518-71.418 159.518-159.518c0-43.979-17.797-83.801-46.583-112.657l0.003 0.003z" />
<glyph unicode="&#xe90c;" glyph-name="woody" d="M743.824 494.385l177.779 108.219v118.41l-154.355-94.006v332.992h-346.553v-291.435h-36.011v291.435h-102.536v-552.435l-179.752 109.524v-140.426l318.371-192.791v-216.978h-36.009v192.256l-102.538 62.492v-285.642h485.097v530.115l-55.186-32.755v-176.338h-36.3l0.438 200.679 67.556 36.685zM676.122 188.586h36.011v-107.446h-36.011v107.446zM384.76 494.385v107.446h36.011v-107.446h-36.011zM550.093 304.214h-36.009v527.72h36.009v-527.72zM550.093-33.102h-36.009v261.238h36.009v-261.238zM636.749 904.54h36.009v-183.064h-36.009v183.064z" />
<glyph unicode="&#xe90d;" glyph-name="spicy" d="M56.894 675.572c31.419 0 56.889 25.472 56.889 56.89s-25.47 56.889-56.889 56.889-56.889-25.47-56.889-56.889c0-31.418 25.47-56.89 56.889-56.89zM573.112 556.302c-68.308 11.418-89.736-17.495-104.11 8.709-14.449 26.214 20.163 31.188 44.869 98.99 15.834 43.414 20.367 80.319 12.209 125.35-41.303-15.085-69.146-37.776-97.062-73.944-43.538-56.378-30.351-90.28-59.246-90.28-28.892 0-15.629 33.902-59.244 90.28-27.912 36.096-55.822 58.867-97.066 73.944-8.168-45.031-3.631-81.926 12.213-125.35 24.771-67.794 59.314-72.773 44.868-98.99-14.449-26.214-35.794 2.706-104.113-8.709-43.754-7.319-76.477-21.307-109.554-51.254 33.077-29.944 65.8-44.298 109.554-51.54 68.31-11.415 89.734 17.495 104.113-8.709 14.446-26.217-20.167-31.188-44.868-98.995-15.844-43.407-20.372-80.315-12.213-125.338 41.306 15.084 69.146 37.775 97.066 73.946 43.538 56.376 30.351 90.266 59.244 90.266 28.895 0 15.629-33.9 59.246-90.266 27.912-36.096 56.105-58.644 97.341-73.802 8.166 45.033 3.346 81.713-12.488 125.194-24.773 67.796-59.315 72.776-44.867 98.993 14.449 26.214 35.791-2.706 104.11 8.709 43.756 7.319 76.48 21.604 109.555 51.543-33.075 29.944-65.8 43.924-109.555 51.251l-0.003 0.003zM369.779 460.752c-23.235 0-42.002 19.771-42.002 44.081s18.836 44.078 42.002 44.078c23.168 0 42.004-19.771 42.004-44.078 0-24.31-18.836-44.081-42.004-44.081zM369.779 846.223c15.706 0 28.442 25.47 28.442 56.889s-12.736 56.889-28.442 56.889c-15.703 0-28.439-25.47-28.439-56.889s12.736-56.889 28.439-56.889zM341.33 49.798c31.421 0 56.891 25.469 56.891 56.888 0 31.421-25.469 56.888-56.891 56.888-31.419 0-56.888-25.467-56.888-56.888 0-31.419 25.469-56.888 56.888-56.888zM1018.477 355.234c3.505 13.253 5.443 27.192 5.514 41.508 0.233 44.685-17.229 85.286-45.655 115.128l-6.858-15.752c-8.433-19.244-38.868-24.241-67.891-11.062-29.028 13.181-45.742 39.465-37.235 58.698 4.549 10.301 7.685 12.726 13.056 17.039l-14.024 0.835c-2.010 0.146-3.955 0.146-5.965 0.146-125.637-2.276-149.658-149.289-186.511-262.518-60.285-184.963-239.186-293.197-438.388-305.464-7.757-0.453-9.622-11.139-2.539-14.321 38.126-16.814 115.786-43.471 225.462-43.471 262.464 0 484.718 174.659 560.206 415.739 0.077 0.384 0.151 0.76 0.305 1.068 0.218 0.832 0.522 1.59 0.748 2.427h-0.225zM798.715 789.336c134.607-10.021 214.904-165.048 139.146-279.354-3.535-5.332-10.627-6.648-15.803-3.087 0 0-0.184 0.090-0.271 0.187-4.721 3.277-6.264 9.549-3.988 14.889 18.803 42.601 15.165 94.551-10.26 132.186-23.987 36.695-66.947 58.132-108.544 53.363-1.178-0.090-2.281 0.841-2.281 2.058l-0.264 77.612c0 1.217 0.998 2.246 2.179 2.157h0.087v-0.010z" />
<glyph unicode="&#xe90e;" glyph-name="fresh" d="M463.043-63.959c25.999 431.967 197.23 788.182 489.695 1023.959l-33.722-53.537c-148.8-256.074-252.576-555.157-267.437-864.436-1.337-28.313-0.366-71.075-0.366-105.987h-188.17zM610.076-63.893c42.343 217.97 196.52 409.050 391.591 511.895 2.969-3.131-38.97-66.076-43.789-74.826-57.848-105.814-98.014-220.622-118.023-339.928-4.662-28.098-4.339-60.131-8.998-86.788-0.802-4.66-2.168-7.79-6.267-10.434l-214.514 0.082zM462.979-64h-173.915c-16.691 198.686-124.471 412.199-266.881 563.176 233.033-41.851 407.496-302.836 440.796-563.176zM435.544 243.223c-27.722 140.608-110.44 353.626-217.387 511.977 88.737-31.961 173.689-99.652 235.003-180.028 12.040-15.766 39.319-53.552 58.861-91.34-32.627-71.121-64.658-176.601-76.475-240.608h-0.002z" />
<glyph unicode="&#xe90f;" glyph-name="malty" d="M203.963 626.128c-0.074-2.901-0.223-5.8-0.223-8.771 0-181.106 106.667-282.119 308.032-283.087 0.074 2.901 0.22 5.8 0.22 8.771 0 181.106-106.664 282.119-308.028 283.087h-0.001zM512.231 334.27c-0.077 2.901-0.222 5.8-0.222 8.771 0 181.106 106.664 282.119 308.027 283.087 0.074-2.901 0.225-5.8 0.225-8.768 0-181.106-106.669-282.122-308.032-283.090h0.002zM203.963 340.655c-0.074-2.898-0.223-5.8-0.223-8.771 0-181.106 106.667-282.119 308.032-283.090 0.074 2.901 0.22 5.8 0.22 8.773 0 181.106-106.664 282.119-308.029 283.087zM512.231 48.795c-0.077 2.901-0.222 5.8-0.222 8.773 0 181.106 106.664 282.119 308.027 283.087 0.074-2.898 0.225-5.8 0.225-8.771 0-181.106-106.667-282.119-308.029-283.090zM514.352 551.523c-2.306 2.002-4.605 3.935-6.84 6.008-137.883 128.081-139.37 269.555 2.306 402.469 2.306-2.003 4.61-3.936 6.84-6.007 137.888-128.081 139.37-269.556-2.306-402.471zM518.561 237.035l-6.689-15.4-6.694 14.917c-7.728 17.397-11.889 37.214-11.889 57.377v50.678h36.418v-51.575c0-19.676-3.863-38.939-11.223-55.994h0.077zM511.862 506.999c0 0-4.086 44.606-33.746 80.232l15.163 42.672h36.423l18.729-42.877c-24.676-33.49-36.646-80.092-36.646-80.092l0.077 0.067v-0.002zM530.004 62.634h-36.423v-126.634h36.423v126.634z" />
<glyph unicode="&#xe910;" glyph-name="peaty" d="M255.437 380.397c21.102-62.287 76.72-100.731 116.239-69.663 53.952 42.43-3.625 89.823-10.949 213.573-7.977 135.034 72.588 246.293 180.201 279.094-28.936-53.864-37.926-126.533-36.401-169.262 1.882-53.637 27.336-115.323 76.354-112.24 60.114 3.838 61.494 96.819 55.042 142.855 21.755-16.174 70.702-58.678 75.706-142.33 4.928-83.653-86.658-146.012-38.507-196.567 27.845-29.266 77.877-6.697 89.118 56.046 0 0 31.18-61.988 35.24-131.049 9.72-163.543-110.292-304.296-267.937-314.298-157.578-9.93-293.255 114.719-302.971 278.039-4.059 68.078 12.98 128.566 28.862 165.801v0.002zM266.171 460.268c15.9 0 28.79 13.371 28.79 29.867 0 16.494-12.889 29.865-28.79 29.865-15.898 0-28.79-13.371-28.79-29.865 0-16.496 12.889-29.867 28.79-29.867zM664.734 740.418c22.546 0 40.83 18.961 40.83 42.354s-18.284 42.354-40.83 42.354c-22.546 0-40.825-18.961-40.825-42.354s18.279-42.354 40.825-42.354zM492.981 884.156c21.061 0 38.139 16.977 38.139 37.922s-17.077 37.922-38.139 37.922c-21.064 0-38.139-16.977-38.139-37.922s17.075-37.922 38.139-37.922z" />
<glyph unicode="&#xe911;" glyph-name="fruity" d="M1007.514 587.476c-30.702 116.641-102.523 218.216-202.066 286.152l-8.873 6.046-48.015-82.161 7.506-5.277c79.498-55.679 134.597-134.857 159.417-228.942 27.63-104.892 12.618-214.38-42.312-308.294-54.93-93.912-143.038-160.822-248.041-188.411-92.888-24.435-191.655-15.24-278.060 25.884l-8.364 3.92-48.020-82.161 9.636-4.771c69.258-34.056 145.001-51.336 221.174-51.336 42.813 0 85.801 5.448 127.775 16.52 268.002 70.321 428.604 345.24 358.152 612.66l0.082 0.171h0.010zM647.223 130.359c4.352-2.036 8.952-3.062 13.65-3.062s9.042 0.932 13.219 2.893c48.446 22.221 90.502 54.236 125.043 95.020 6.057 7.152 8.617 16.602 6.992 25.886-1.615 9.444-7.337 17.623-15.611 22.474l-186.284 108.465c-7.084 4.086-15.78 3.571-22.254-1.362-6.487-4.941-9.298-13.189-7.248-21.023l54.848-208.336c2.47-9.285 8.873-16.944 17.572-21.025l0.082 0.079-0.010-0.010zM376.731 138.436c3.159-8.858 10.060-15.841 18.852-19.156 40.596-14.987 82.652-22.572 125.386-22.572 10.063 0 20.214 0.431 30.367 1.28 9.298 0.771 17.826 5.622 23.281 13.366 5.552 7.836 7.337 17.623 4.859 26.9l-54.93 208.334c-2.043 7.836-8.617 13.619-16.715 14.722-8.018 1.106-15.946-2.716-20.045-9.7l-108.667-185.949c-4.859-8.258-5.714-18.222-2.47-27.244h0.082v0.017zM601.015 520.878c3.843-5.105 9.807-7.915 15.946-7.915 1.705 0 3.415 0.256 5.123 0.681l208.12 54.661c9.301 2.468 16.973 8.858 21.148 17.536 4.017 8.512 4.096 18.304 0.174 26.818-22.267 48.189-54.249 89.994-95.022 124.385-7.163 6.046-16.635 8.595-25.925 6.981-9.472-1.612-17.652-7.326-22.523-15.577l-108.321-185.35c-4.096-6.981-3.579-15.749 1.359-22.221h-0.079zM832.982 313.995c3.672 0 7.424 0.599 11.009 1.956 8.954 3.241 15.867 10.050 19.187 18.908 18.426 50.053 25.5 102.334 21.066 155.293-0.768 9.282-5.632 17.797-13.394 23.155-7.846 5.532-17.648 7.327-26.949 4.853l-208.298-54.663c-7.846-2.043-13.65-8.597-14.756-16.694-1.108-8.084 2.732-15.918 9.723-20.009l186.113-108.465c5.031-2.893 10.662-4.421 16.289-4.421v0.079l0.010 0.007zM218.945 540.513l73.009 126.18-73.009 126.182h-145.937l-73.009-126.182 73.009-126.18h145.937zM291.967 376.918l-73.010 126.18h-145.937l-73.009-126.18 73.009-126.183h56.809v-94.418c0-6.638 5.376-12.007 11.942-12.007s11.942 5.366 11.942 12.007v94.418h40.427v-53.292c0-6.638 5.376-11.925 11.942-11.925s11.942 5.368 11.942 11.925v53.292h0.772l73.010 126.183h0.161zM141.794 120.198c-6.656 0-11.942-5.371-11.942-11.925v-10.727c0-6.638 5.376-12.004 11.942-12.004s11.942 5.366 11.942 12.004v10.727c0 6.638-5.376 11.925-11.942 11.925zM473.2 685.514l72.925 126.181-72.925 126.18h-146.030l-72.927-126.18 72.927-126.181h146.030zM549.157 596.267l114.036 196.583h-81.8l-73.009-126.183 40.774-70.4zM473.095 648.049h-145.936l-73.009-126.18 73.009-126.17h105.767l93.22 160.74-53.051 91.61zM411.165 358.248h-84.014l-73.011-126.183 41.882-72.366 115.144 198.549z" />
<glyph unicode="&#xe912;" glyph-name="statistic" d="M472.163 278.637v-322.749c0.020-2.796-0.553-5.565-1.679-8.125-1.126-2.557-2.783-4.846-4.854-6.715-2.074-1.866-4.518-3.272-7.173-4.119-2.652-0.847-5.455-1.119-8.22-0.799-90.89 11.215-177.132 46.679-249.762 102.707s-129 130.575-163.249 215.892c-1.024 2.596-1.489 5.376-1.366 8.164s0.834 5.517 2.083 8.010c1.249 2.491 3.010 4.69 5.166 6.449s4.658 3.039 7.342 3.756l310.2 83.676c3.971 1.047 8.169 0.819 12.004-0.653 3.835-1.469 7.117-4.109 9.385-7.547 18.78-27.297 45.578-48.020 76.652-59.274 3.909-1.303 7.311-3.807 9.728-7.158 2.417-3.348 3.727-7.378 3.743-11.515zM511.794 959.998c-5.192 0.039-10.337-0.954-15.145-2.923-4.805-1.968-9.178-4.873-12.861-8.546s-6.607-8.043-8.602-12.857c-1.994-4.814-3.023-9.977-3.023-15.191v-276.614c-0.077-10.394 3.953-20.393 11.21-27.802 7.255-7.411 17.142-11.622 27.487-11.715 37.148 0.161 73.155-12.887 101.645-36.838 28.49-23.949 47.629-57.254 54.021-94.019 6.395-36.762-0.364-74.614-19.082-106.849-18.719-32.238-48.187-56.781-83.187-69.286-3.909-1.313-7.306-3.827-9.715-7.188-2.409-3.359-3.704-7.393-3.709-11.533v-322.749c-0.015-2.793 0.556-5.558 1.679-8.113 1.124-2.552 2.772-4.838 4.841-6.707 2.068-1.866 4.506-3.272 7.153-4.124 2.647-0.85 5.445-1.129 8.207-0.814 129.582 15.398 248.402 79.98 332.129 180.518 83.73 100.541 126.031 229.437 118.246 360.292-7.785 130.852-65.070 253.767-160.125 343.572-95.053 89.805-220.685 139.706-351.168 139.486zM354.457 458.684c1.83 23.342 8.799 45.983 20.403 66.289v0.346c3.899 6.764 5.714 14.536 5.215 22.333s-3.29 15.273-8.015 21.481c-3.313 4.265-7.421 7.839-12.096 10.519l-237.628 138.012c-4.477 2.594-9.42 4.275-14.544 4.949s-10.331 0.327-15.322-1.022c-4.991-1.349-9.668-3.672-13.765-6.838s-7.532-7.111-10.11-11.612c-57.226-99.569-79.591-215.532-63.525-329.367 0.379-2.78 1.343-5.445 2.826-7.821s3.454-4.406 5.779-5.957c2.326-1.551 4.953-2.588 7.708-3.039 2.755-0.453 5.574-0.31 8.27 0.417l310.838 83.971c3.853 1.070 7.281 3.31 9.818 6.415 2.534 3.103 4.052 6.92 4.344 10.924h-0.197z" />
<glyph unicode="&#xe913;" glyph-name="more-options" d="M625.777 846.223c0-62.838-50.94-113.777-113.777-113.777s-113.777 50.94-113.777 113.777c0 62.838 50.94 113.777 113.777 113.777s113.777-50.94 113.777-113.777zM625.777 448c0-62.838-50.94-113.777-113.777-113.777s-113.777 50.94-113.777 113.777c0 62.838 50.94 113.777 113.777 113.777s113.777-50.94 113.777-113.777zM625.777 49.777c0-62.838-50.94-113.777-113.777-113.777s-113.777 50.94-113.777 113.777c0 62.838 50.94 113.777 113.777 113.777s113.777-50.94 113.777-113.777z" />
<glyph unicode="&#xe914;" glyph-name="recommendations" d="M755.81 460.174c121.187 0 219.428 98.241 219.428 219.428s-98.241 219.427-219.428 219.427-219.428-98.241-219.428-219.427c0-121.187 98.241-219.428 219.428-219.428zM926.477 679.625c0 94.257-76.409 170.667-170.667 170.667s-170.667-76.41-170.667-170.667c0-94.255 76.409-170.664 170.667-170.664s170.667 76.409 170.667 170.664zM1024 679.625c0-148.115-120.073-268.188-268.191-268.188s-268.191 120.073-268.191 268.188c0 148.118 120.073 268.191 268.191 268.191s268.191-120.073 268.191-268.191zM219.43 240.751c94.257 0 170.666 76.409 170.666 170.667 0 94.255-76.409 170.664-170.666 170.664s-170.667-76.409-170.667-170.664c0-94.258 76.41-170.667 170.667-170.667zM341.334 411.439c0 67.328-54.577 121.905-121.905 121.905-67.326 0-121.905-54.577-121.905-121.905 0-67.325 54.578-121.905 121.905-121.905s121.905 54.579 121.905 121.905zM438.857 411.439c0-121.185-98.241-219.426-219.428-219.426s-219.428 98.241-219.428 219.426c0 121.187 98.242 219.428 219.428 219.428s219.428-98.241 219.428-219.428zM633.905-3.054c67.328 0 121.905 54.577 121.905 121.905 0 67.325-54.577 121.902-121.905 121.902-67.325 0-121.905-54.577-121.905-121.902 0-67.328 54.579-121.905 121.905-121.905zM707.048 118.848c0 40.397-32.748 73.143-73.143 73.143s-73.143-32.746-73.143-73.143c0-40.395 32.748-73.143 73.143-73.143s73.143 32.748 73.143 73.143zM804.572 118.848c0-94.255-76.409-170.664-170.667-170.664s-170.667 76.409-170.667 170.664c0 94.258 76.409 170.667 170.667 170.667s170.667-76.409 170.667-170.667z" />
<glyph unicode="&#xe915;" glyph-name="search-filled" d="M151.631 544.216c0 146.060 118.406 264.466 264.466 264.466s264.466-118.405 264.466-264.466c0-146.061-118.405-264.466-264.466-264.466-0.16 0-0.32 0-0.48 0h0.026c0 0 0 0 0 0-145.81 0-264.012 118.202-264.012 264.012 0 0.159 0 0.32 0 0.479v-0.024zM415.642 960c-229.509-0.163-415.499-186.254-415.499-415.785 0-229.632 186.153-415.785 415.785-415.785 88.046 0 169.701 27.367 236.922 74.059l-1.369-0.9 244.927-245.381c13.493-12.525 31.631-20.208 51.563-20.208 41.911 0 75.886 33.976 75.886 75.886 0 19.932-7.685 38.070-20.252 51.611l0.044-0.048-245.381 244.927c45.914 65.911 73.356 147.67 73.356 235.838 0 229.632-186.153 415.785-415.785 415.785-0.070 0-0.138 0-0.207 0h0.011zM593.771 544.216c0-98.378-79.75-178.128-178.128-178.128s-178.128 79.75-178.128 178.128c0 98.378 79.75 178.128 178.128 178.128s178.128-79.75 178.128-178.128z" />
<glyph unicode="&#xe916;" glyph-name="home-outline" d="M553.876 916.891c-27.194 8.978-56.555 8.978-83.749 0-14.657-4.839-26.94-12.463-38.498-21.049-10.882-8.084-23.193-18.637-37.343-30.766l-378.737-324.635c-14.145-12.125-19.246-31.776-12.782-49.249 6.464-17.475 23.124-29.077 41.756-29.077h22.26v-308.766c-0.001-21.5-0.001-40.047 1.147-55.363 1.21-16.144 3.878-32.246 11.122-47.963 13.314-28.881 36.497-52.063 65.378-65.376 15.714-7.244 31.819-9.911 47.962-11.121 15.315-1.149 33.863-1.149 55.359-1.149h152.943c24.587 0 44.52 19.932 44.52 44.522v220.381c0 12.092 0.031 18.703 0.387 23.472l0.049 0.583 0.583 0.045c4.763 0.361 11.38 0.387 23.468 0.387h84.591c12.092 0 18.708-0.027 23.472-0.387l0.583-0.045 0.049-0.583c0.356-4.769 0.383-11.38 0.383-23.472v-220.381c0-11.807 4.692-23.134 13.040-31.482 8.352-8.348 19.674-13.040 31.482-13.040h152.945c21.494 0 40.042 0 55.358 1.149 16.148 1.211 32.252 3.878 47.963 11.121 28.881 13.312 52.063 36.494 65.38 65.376 7.244 15.716 9.911 31.82 11.121 47.963 1.149 15.315 1.149 33.863 1.145 55.363v308.766h22.26c18.632 0 35.292 11.602 41.757 29.077 6.464 17.473 1.367 37.124-12.783 49.249l-378.737 324.635c-14.148 12.128-26.459 22.682-37.341 30.766-11.558 8.586-23.841 16.209-38.498 21.049zM868.172 543.402v-388.488c0-23.507-0.027-38.685-0.895-50.269-0.837-11.131-2.257-15.315-3.192-17.341-4.439-9.63-12.168-17.354-21.793-21.793-2.031-0.935-6.211-2.359-17.341-3.192-11.585-0.868-26.762-0.899-50.273-0.899h-106.852v177.16c0.004 10.294 0.004 20.32-0.632 28.828-0.699 9.328-2.347 20.359-7.546 31.637-8.873 19.255-24.331 34.709-43.582 43.587-11.277 5.2-22.315 6.843-31.637 7.542-8.513 0.641-18.538 0.637-28.832 0.637h-87.186c-10.294 0-20.32 0.004-28.832-0.637-9.328-0.699-20.358-2.342-31.636-7.542-19.254-8.878-34.709-24.331-43.585-43.587-5.2-11.277-6.844-22.309-7.543-31.637-0.639-8.508-0.638-18.534-0.637-28.828v-177.16h-106.852c-23.508 0-38.687 0.031-50.271 0.899-11.129 0.833-15.313 2.257-17.341 3.192-9.627 4.439-17.354 12.164-21.793 21.793-0.935 2.025-2.357 6.211-3.192 17.341-0.868 11.585-0.897 26.762-0.897 50.269v351.676c0 0.018 0-0.014 0 0 0 0.018 0 0.074 0 0.089v36.722l295.327 253.139c15.538 13.32 25.484 21.814 33.574 27.821 7.684 5.711 11.282 7.301 13.312 7.972 9.065 2.993 18.855 2.993 27.919 0 2.031-0.671 5.623-2.261 13.312-7.972 8.090-6.007 18.035-14.501 33.574-27.821l295.325-253.139z" />
<glyph unicode="&#xe917;" glyph-name="user-outline" d="M512 960c-124.945 0-226.233-101.288-226.233-226.233s101.288-226.233 226.233-226.233c124.947 0 226.233 101.288 226.233 226.233s-101.286 226.233-226.233 226.233zM381.024 733.766c0 72.336 58.639 130.976 130.976 130.976s130.976-58.64 130.976-130.976c0-72.336-58.639-130.976-130.976-130.976s-130.976 58.64-130.976 130.976zM512 412.278c-374.594 0-500.093-203.723-500.093-309.581 0-46.542 15.723-89.031 46.694-120.003s73.459-46.694 120.003-46.694h666.792c46.542 0 89.031 15.722 120.003 46.694s46.694 73.461 46.694 120.003c0 105.858-125.5 309.581-500.093 309.581zM107.162 102.697c0 37.026 65.013 214.326 404.838 214.326s404.838-177.3 404.838-214.326c0-24.9-8.092-41.946-18.794-52.648s-27.748-18.794-52.648-18.794h-666.792c-24.897 0-41.944 8.092-52.647 18.794s-18.795 27.748-18.795 52.648z" />
<glyph unicode="&#xe918;" glyph-name="info" d="M512 960c-282.77 0-512-229.23-512-512s229.23-512 512-512c282.77 0 512 229.23 512 512v0c0 282.77-229.23 512-512 512v0zM559.628 209.861c0-26.304-21.324-47.628-47.628-47.628s-47.628 21.324-47.628 47.628v0 238.139c0 26.304 21.324 47.628 47.628 47.628s47.628-21.324 47.628-47.628v0zM512 590.884c-39.456 0-71.442 31.986-71.442 71.442s31.986 71.442 71.442 71.442c39.456 0 71.442-31.986 71.442-71.442v0c0-39.456-31.986-71.442-71.442-71.442v0z" />
<glyph unicode="&#xe919;" glyph-name="question" d="M512 960c-282.77 0-512-229.231-512-512s229.231-512 512-512c282.77 0 512 229.231 512 512v0c0 282.77-229.231 512-512 512v0zM512 145.455c-32.133 0-58.181 26.049-58.181 58.181s26.049 58.181 58.181 58.181c32.133 0 58.181-26.049 58.181-58.181v0c0-32.133-26.049-58.181-58.181-58.181v0zM674.909 562.036c-0.923-59.1-32.645-110.59-79.788-139.222l-0.735-0.415-18.619-11.171c-10.395-6.398-17.222-17.714-17.222-30.625 0-0.034 0-0.067 0-0.1v0.005c0-25.706-20.84-46.546-46.546-46.546s-46.546 20.84-46.546 46.546v0c0.040 46.574 24.77 87.363 61.805 109.991l0.566 0.322 19.083 11.171c21.080 13.068 34.909 36.077 34.909 62.317 0 0.019 0 0.038 0 0.057v-0.003c0 38.559-31.259 69.818-69.818 69.818s-69.818-31.259-69.818-69.818v0c0-25.706-20.84-46.546-46.546-46.546s-46.546 20.84-46.546 46.546v0c0 89.973 72.937 162.909 162.909 162.909s162.909-72.937 162.909-162.909v0z" />
<glyph unicode="&#xe91a;" glyph-name="aged" d="M888.321 55.296h-35.328v113.152c0 0.011 0 0.024 0 0.037 0 77.746-39.029 146.377-98.562 187.368l-0.767 0.499-135.68 91.648 135.68 91.648c60.3 41.49 99.328 110.12 99.328 187.867 0 0.013 0 0.026 0 0.038v-0.002 113.152h35.328c30.617 2.924 54.372 28.512 54.372 59.648s-23.755 56.724-54.13 59.629l-0.242 0.019h-752.64c-30.617-2.924-54.372-28.512-54.372-59.648s23.755-56.724 54.13-59.629l0.242-0.019h35.328v-113.152c0-0.011 0-0.024 0-0.037 0-77.746 39.029-146.377 98.562-187.368l0.767-0.499 135.68-91.648-135.68-91.648c-60.3-41.49-99.328-110.12-99.328-187.867 0-0.013 0-0.026 0-0.038v0.002-113.152h-35.328c-30.617-2.924-54.372-28.512-54.372-59.648s23.755-56.724 54.13-59.629l0.242-0.019h752.64c30.617 2.924 54.372 28.512 54.372 59.648s-23.755 56.724-54.13 59.629l-0.242 0.019zM335.874 638.464c-28.584 19.505-47.105 51.925-47.105 88.669 0 0.148 0 0.294 0.001 0.44v-0.023 27.648h446.464v-30.208c0-0.124 0.001-0.271 0.001-0.419 0-36.745-18.521-69.164-46.736-88.432l-0.368-0.238-176.128-116.224zM735.234 55.296h-446.464v113.152h446.464z" />
<glyph unicode="&#xe91b;" glyph-name="warning" d="M510.662 960c-679.098-26.997-679.098-997.004 0-1024 282.769 0 512 229.231 512 512s-229.231 512-512 512v0zM522.298 727.272v0c0.015 0 0.032 0 0.050 0 30.077 0 54.458-24.382 54.458-54.458 0-0.819-0.018-1.633-0.053-2.442l0.004 0.115-17.222-256.466c0-20.565-16.671-37.236-37.236-37.236s-37.236 16.671-37.236 37.236v0l-16.757 256.466v2.792c0 29.82 24.173 53.993 53.993 53.993v0zM522.298 193.396c-32.133 0-58.182 26.049-58.182 58.182s26.049 58.182 58.182 58.182c32.133 0 58.182-26.049 58.182-58.182v0c0-32.133-26.049-58.182-58.182-58.182v0z" />
<glyph unicode="&#xe91c;" glyph-name="checkmark-round" d="M512-64c-282.77 0-512 229.232-512 512 0 282.77 229.231 512 512 512s512-229.231 512-512c0-282.768-229.232-512-512-512zM751.932 555.496c21.424 21.423 21.424 56.157 0 77.58s-56.157 21.423-77.578 0l-253.785-253.782-89.209 89.209c-21.423 21.424-56.157 21.424-77.58 0-21.423-21.42-21.423-56.157 0-77.578l128-128c21.423-21.424 56.156-21.424 77.58 0l292.571 292.57z" />
<glyph unicode="&#xe91d;" glyph-name="apple" d="M857.854 64.058c-42.636-63.483-87.84-125.428-156.672-126.452-68.836-1.538-90.926 40.446-169.008 40.446-78.59 0-102.733-39.421-167.973-41.984-67.293-2.557-118.148 67.579-161.298 129.528-87.84 126.456-155.134 359.4-64.724 516.061 44.69 77.819 124.826 126.968 211.64 128.504 65.752 1.024 128.423-44.541 169.002-44.541 40.069 0 116.093 54.78 195.717 46.589 33.387-1.536 126.881-13.312 186.982-101.369-4.625-3.072-111.473-65.531-110.445-195.060 1.543-154.615 136.126-206.324 137.668-206.834-1.543-3.582-21.575-73.723-70.889-144.888zM564.539 883.206c37.502 42.493 99.657 74.747 151.024 76.794 6.682-59.901-17.465-120.311-53.42-163.317-35.445-43.517-94.007-77.307-151.538-72.699-7.706 58.876 21.061 120.311 53.934 159.221z" />
<glyph unicode="&#xe91e;" glyph-name="arrow-left" d="M1024 447.999c0-40.398-32.744-73.142-73.142-73.142h-701.132l284.739-284.736c28.561-28.567 28.561-74.875 0-103.441-28.567-28.561-74.875-28.561-103.441 0l-409.599 409.601c-28.564 28.567-28.564 74.875 0 103.441l409.599 409.599c28.567 28.564 74.875 28.564 103.441 0 28.561-28.564 28.561-74.876 0-103.439l-284.739-284.738h701.132c40.398 0 73.142-32.744 73.142-73.142z" />
<glyph unicode="&#xe91f;" glyph-name="arrow-right" d="M0 448.001c0 40.398 32.747 73.142 73.142 73.142h701.131l-284.736 284.737c-28.561 28.564-28.561 74.876 0 103.439 28.567 28.564 74.875 28.564 103.441 0l409.601-409.599c28.561-28.567 28.561-74.875 0-103.441l-409.601-409.601c-28.567-28.561-74.875-28.561-103.441 0-28.561 28.567-28.561 74.875 0 103.441l284.736 284.736h-701.131c-40.395 0-73.142 32.744-73.142 73.142z" />
<glyph unicode="&#xe920;" glyph-name="chevron-up" d="M465.584 717.594c25.637 25.635 67.195 25.635 92.832 0l446.36-446.359c25.632-25.637 25.632-67.195 0-92.832-25.637-25.632-67.195-25.632-92.832 0l-399.944 399.945-399.944-399.945c-25.635-25.632-67.196-25.632-92.83 0-25.635 25.637-25.635 67.195 0 92.832l446.359 446.359z" />
<glyph unicode="&#xe921;" glyph-name="bookmark" d="M353.028 960h317.94c39.482 0 72.062 0.001 98.605-2.167 27.568-2.253 52.91-7.087 76.716-19.215 36.911-18.809 66.922-48.82 85.731-85.734 12.128-23.803 16.964-49.146 19.216-76.713 2.168-26.543 2.168-59.127 2.168-98.606v-514.794c0-42.518 0-77.737-2.393-104.78-2.3-25.935-7.411-56.093-26.984-79.007-25.489-29.844-63.725-45.686-102.852-42.606-30.046 2.365-54.985 20.074-74.951 36.788-20.815 17.425-45.715 42.331-75.779 72.395l-109.895 109.891c-15.135 15.14-24.435 24.385-31.933 30.751-11.197 9.505-22.036 9.505-33.233 0-7.499-6.366-16.798-15.611-31.933-30.751l-109.896-109.891c-30.063-30.065-54.964-54.97-75.781-72.395-19.967-16.715-44.905-34.425-74.946-36.788-39.128-3.079-77.366 12.762-102.856 42.606-19.571 22.914-24.684 53.072-26.982 79.007-2.397 27.043-2.396 62.262-2.394 104.78v514.792c0 39.479-0.001 72.063 2.167 98.607 2.253 27.568 7.087 52.91 19.215 76.713 18.808 36.914 48.82 66.926 85.734 85.734 23.803 12.128 49.146 16.962 76.714 19.215 26.543 2.168 59.127 2.168 98.606 2.167z" />
<glyph unicode="&#xe922;" glyph-name="camera" d="M390.091 387.049c0 67.324 54.578 121.902 121.904 121.902s121.902-54.58 121.902-121.902c0-67.328-54.575-121.907-121.902-121.907s-121.904 54.58-121.904 121.907zM262.877 816.32l41.129 61.852c16.929 25.458 25.393 38.188 36.588 47.405 9.91 8.159 21.332 14.282 33.614 18.015 13.873 4.219 29.159 4.219 59.733 4.219h156.114c30.57 0 45.861 0 59.732-4.219 12.284-3.734 23.705-9.857 33.615-18.015 11.194-9.217 19.656-21.944 36.585-47.405l41.132-61.852c5.725-8.615 8.593-12.923 12.056-16.379 6.772-6.749 15.374-11.36 24.744-13.259 4.795-0.972 9.966-0.972 20.313-0.972 55.361 0 83.042 0 105.407-7.396 43.953-14.534 78.434-49.012 92.965-92.964 7.396-22.367 7.396-50.046 7.396-105.407v-397.695c0-81.929 0-122.894-15.947-154.187-14.023-27.523-36.404-49.902-63.925-63.925-31.293-15.947-72.258-15.947-154.187-15.947h-555.885c-81.927 0-122.892 0-154.184 15.947-27.526 14.023-49.904 36.404-63.929 63.925-15.943 31.293-15.943 72.258-15.943 154.187v397.695c0 55.359 0 83.039 7.396 105.407 14.534 43.951 49.012 78.431 92.964 92.964 22.367 7.396 50.046 7.396 105.407 7.396 10.347 0 15.519 0 20.316 0.972 9.369 1.899 17.972 6.51 24.74 13.259 3.465 3.455 6.329 7.763 12.059 16.379zM511.996 606.478c-121.187 0-219.429-98.241-219.429-219.427 0-121.19 98.241-219.429 219.429-219.429 121.186 0 219.429 98.238 219.429 219.429 0 121.186-98.245 219.427-219.429 219.427z" />
<glyph unicode="&#xe923;" glyph-name="close" d="M27.771 932.229c37.028 37.028 97.062 37.028 134.087 0l350.141-350.14 350.141 350.14c37.031 37.028 97.060 37.028 134.091 0 37.024-37.028 37.024-97.062 0-134.087l-350.141-350.141 350.141-350.141c37.024-37.031 37.024-97.060 0-134.091-37.031-37.024-97.060-37.024-134.091 0l-350.141 350.141-350.141-350.141c-37.028-37.024-97.062-37.024-134.087 0-37.028 37.031-37.028 97.060 0 134.091l350.14 350.141-350.14 350.141c-37.028 37.028-37.028 97.062 0 134.087z" />
<glyph unicode="&#xe924;" glyph-name="refresh" d="M511.999 835.122c-184.156 0-338.413-128.648-377.529-301.036-7.631-33.632-41.079-54.707-74.708-47.074s-54.705 41.080-47.074 74.708c51.74 228.019 255.568 398.28 499.312 398.28 154.689 0 293.288-68.606 387.122-176.92v101.993c0 34.484 27.952 62.439 62.439 62.439s62.439-27.955 62.439-62.439v-249.756c0-34.484-27.952-62.439-62.439-62.439h-249.756c-34.486 0-62.439 27.955-62.439 62.439s27.952 62.439 62.439 62.439h95.996c-71.055 84.073-177.237 137.365-295.8 137.365zM964.237 408.988c33.627-7.632 54.707-41.080 47.074-74.707-51.739-228.017-255.571-398.28-499.312-398.28-154.689 0-293.287 68.608-387.122 176.922v-101.995c0-34.486-27.955-62.439-62.439-62.439s-62.439 27.952-62.439 62.439v249.756c0 34.486 27.955 62.439 62.439 62.439h249.756c34.484 0 62.439-27.952 62.439-62.439s-27.955-62.439-62.439-62.439h-95.999c71.058-84.073 177.242-137.365 295.803-137.365 184.155 0 338.414 128.649 377.532 301.036 7.627 33.627 41.080 54.707 74.707 47.074z" />
<glyph unicode="&#xe925;" glyph-name="refresh-bold" d="M562.522 826.909v95.127c0 32.259 37.739 49.763 62.368 28.925l231.836-196.169c17.884-15.136 17.884-42.716 0-57.851l-231.836-196.168c-24.629-20.84-62.368-3.334-62.368 28.924v95.129c-187.351 0-287.857 0-462.544-140.901-16.892-13.625-42.209-1.712-40.287 19.906 28.721 323.080 311.205 323.080 502.832 323.080zM461.478 69.089v-95.126c0-32.258-37.739-49.764-62.366-28.924l-231.836 196.168c-17.888 15.136-17.888 42.716 0 57.852l231.836 196.168c24.627 20.835 62.366 3.334 62.366-28.924v-95.131c187.353 0 287.859 0 462.547 140.903 16.889 13.625 42.21 1.712 40.285-19.906-28.721-323.082-311.205-323.082-502.832-323.082z" />
<glyph unicode="&#xe926;" glyph-name="delete" d="M189.916 196.084l-50.28 519.557h744.727l-50.279-519.557c-6.902-71.307-10.352-106.961-26.461-133.907-14.187-23.734-35.1-42.719-60.085-54.556-28.375-13.433-64.196-13.433-135.833-13.433h-199.409c-71.64 0-107.459 0-135.832 13.433-24.988 11.836-45.902 30.823-60.088 54.556-16.107 26.945-19.558 62.599-26.458 133.907zM349.091 738.91c0 89.973 72.937 162.909 162.909 162.909s162.909-72.937 162.909-162.909v-23.272h-325.818v23.272zM512 948.365c107.809 0 196.557-81.458 208.138-186.182h257.317c25.707 0 46.546-20.84 46.546-46.546s-20.839-46.546-46.546-46.546h-50.865l-46.183-477.501c-3.38-34.923-6.144-63.781-10.273-87.18-4.226-23.971-10.413-45.842-22.541-66.136-18.916-31.642-46.825-56.953-80.137-72.728-21.36-10.114-43.702-14.192-67.956-16.091-23.687-1.857-52.69-1.82-87.771-1.82h-199.455c-35.080 0-64.084-0.037-87.772 1.82-24.255 1.899-46.594 5.976-67.955 16.091-33.315 15.775-61.221 41.086-80.136 72.728-12.131 20.294-18.317 42.166-22.546 66.136-4.128 23.399-6.893 52.257-10.273 87.18l-46.181 477.501h-50.864c-25.705 0-46.544 20.841-46.546 46.546 0 25.706 20.84 46.546 46.546 46.546h257.318c11.579 104.724 100.325 186.182 208.137 186.182zM236.228 200.548c3.519-36.365 5.971-60.974 9.317-79.956 3.249-18.418 6.796-27.895 10.773-34.546 9.455-15.812 23.395-28.472 40.045-36.361 7.003-3.319 16.772-5.949 35.409-7.411 19.216-1.503 43.964-1.546 80.5-1.546h199.455c36.533 0 61.282 0.041 80.5 1.546 18.637 1.462 28.406 4.091 35.408 7.411 16.649 7.889 30.59 20.549 40.047 36.361 3.975 6.651 7.522 16.128 10.771 34.546 3.347 18.981 5.799 43.589 9.319 79.956l45.316 468.545h-642.18l45.319-468.545zM512 855.274c-56.296 0-103.264-39.976-114.046-93.091h228.092c-10.78 53.115-57.749 93.091-114.046 93.091z" />
<glyph unicode="&#xe927;" glyph-name="checkmark" d="M1000.138 830.257c30.417-28.52 31.962-76.3 3.442-106.721l-613.457-654.351c-14.273-15.227-34.212-23.863-55.082-23.863s-40.808 8.638-55.081 23.863l-259.539 276.842c-28.52 30.423-26.978 78.2 3.442 106.72s78.201 26.979 106.721-3.442l204.456-218.086 558.371 595.596c28.52 30.42 76.302 31.962 106.725 3.442z" />
<glyph unicode="&#xe928;" glyph-name="chevron-down" d="M18.705 671.97c29.441 36.801 83.139 42.768 119.94 13.327l373.358-298.684 373.353 298.684c36.801 29.44 90.498 23.474 119.943-13.327 29.44-36.801 23.472-90.499-13.329-119.943l-426.663-341.33c-31.164-24.929-75.451-24.929-106.615 0l-426.663 341.33c-36.801 29.444-42.768 83.142-13.327 119.943z" />
<glyph unicode="&#xe929;" glyph-name="edit" d="M919.341 898.299l42.956-42.961c31.448-31.446 47.171-47.169 54.437-64.709 9.687-23.386 9.687-49.664 0-73.052-7.265-17.541-22.989-33.264-54.437-64.709l-64.723-64.725-245.431 245.431 64.729 64.726c31.442 31.446 47.166 47.17 64.707 54.435 23.386 9.687 49.664 9.687 73.052 0 17.541-7.266 33.264-22.989 64.707-54.433l0.005-0.003zM575.013 756.443l-424.22-424.22c-96.552-96.553-150.793-227.503-150.793-364.044 0-17.769 14.406-32.178 32.177-32.178 136.544 0 267.495 54.245 364.046 150.793l424.22 424.22-245.431 245.431z" />
<glyph unicode="&#xe92a;" glyph-name="facebook" d="M512 959.999c-282.777 0-512-229.44-512-512.486 0-276.49 218.88-501.212 492.596-511.513v355.766h-119.963v139.654h119.963v102.752c0 119.104 72.757 184.035 178.943 184.035 35.788 0.103 71.528-1.743 107.11-5.38v-124.534h-73.114c-57.853 0-69.118-27.367-69.118-67.751v-88.916h138.235l-17.97-139.65h-121.089v-341.267c222.927 55.401 388.406 256.5 388.406 496.806 0 283.046-229.223 512.486-512 512.486z" />
<glyph unicode="&#xe92b;" glyph-name="image" d="M0 701.305c0 90.552 0 135.827 17.622 170.414 15.501 30.423 40.235 55.157 70.659 70.659 34.585 17.622 79.862 17.622 170.414 17.622h506.611c90.554 0 135.826 0 170.415-17.622 30.423-15.501 55.156-40.235 70.656-70.659 17.624-34.585 17.624-79.862 17.624-170.414v-506.611c0-90.554 0-135.826-17.624-170.415-15.5-30.423-40.233-55.156-70.656-70.656-34.589-17.624-79.861-17.624-170.415-17.624h-506.611c-90.552 0-135.827 0-170.414 17.624-30.423 15.5-55.157 40.233-70.659 70.656-17.622 34.589-17.622 79.861-17.622 170.415v506.611zM829.978 852.211h-635.958c-30.183 0-45.275 0-56.804-5.874-10.141-5.168-18.385-13.412-23.553-23.553-5.875-11.529-5.875-26.621-5.875-56.804v-533.558l97.168 97.167c32.015 32.019 48.023 48.025 66.481 54.024 16.237 5.276 33.726 5.276 49.964 0 18.459-5.999 34.465-22.005 66.481-54.024l43.275-43.272 178.009 178.009c32.019 32.019 48.025 48.025 66.485 54.024 16.233 5.276 33.728 5.276 49.96 0 18.459-5.999 34.465-22.005 66.485-54.024l124.114-124.114v425.769c0 30.183 0 45.275-5.875 56.804-5.169 10.141-13.408 18.385-23.552 23.553-11.528 5.874-26.619 5.874-56.805 5.874zM323.368 555.79c44.648 0 80.842 36.195 80.842 80.842s-36.195 80.842-80.842 80.842c-44.648 0-80.842-36.195-80.842-80.842s36.195-80.842 80.842-80.842z" />
<glyph unicode="&#xe92c;" glyph-name="location" d="M561.65-4.531c-13.562-6.714-20.34-10.073-32.869-12.401-8.559-1.593-25.007-1.593-33.566 0-12.529 2.327-19.308 5.686-32.869 12.401-109.762 54.347-363.39 211.459-363.39 502.929 0 229.589 184.926 415.709 413.042 415.709 228.119 0 413.042-186.12 413.042-415.709 0-291.47-253.626-448.582-363.39-502.929zM511.998 340.437c101.384 0 183.575 82.191 183.575 183.575 0 101.386-82.191 183.575-183.575 183.575-101.386 0-183.575-82.189-183.575-183.575 0-101.384 82.189-183.575 183.575-183.575zM879.146 498.375c0 204.524-164.656 369.838-367.148 369.838s-367.148-165.315-367.148-369.838c0.012-262.19 229.18-407.938 337.882-461.758 13.529-6.7 15.246-7.38 20.887-8.426 0.174-0.023 0.954-0.124 2.419-0.225 1.707-0.119 3.764-0.179 5.961-0.179s4.254 0.059 5.961 0.179c1.464 0.101 2.244 0.202 2.419 0.225 5.641 1.047 7.356 1.725 20.887 8.426 108.703 53.819 337.868 199.568 337.882 461.758zM649.679 524.011c0 76.038-61.64 137.681-137.681 137.681s-137.681-61.642-137.681-137.681c0-76.041 61.64-137.681 137.681-137.681s137.681 61.64 137.681 137.681zM970.934 498.375c-0.014-320.713-278.111-489.175-388.93-544.045-13.58-6.724-25.416-12.79-44.819-16.402-8.261-1.537-17.706-1.928-25.186-1.928s-16.925 0.39-25.186 1.928c-19.403 3.612-31.24 9.679-44.819 16.402-110.82 54.87-388.918 223.332-388.93 544.045 0 254.658 205.195 461.625 458.936 461.625s458.936-206.967 458.936-461.625zM741.465 524.011c0-126.731-102.738-229.467-229.467-229.467s-229.467 102.738-229.467 229.467c0 126.732 102.737 229.467 229.467 229.467s229.467-102.737 229.467-229.467z" />
<glyph unicode="&#xe92d;" glyph-name="google-play" d="M202.207 947.224l520.572-295.119-158.843-168.196-443.503 469.633c25.388 9.802 54.721 9.018 81.774-6.317zM766.956 627.063l149.951-85.007c70.931-40.211 70.931-147.903 0-188.115l-149.951-85.008-169.1 179.065 169.1 179.064zM79.827 924.725c-15.906-18.512-25.931-43.225-25.931-71.54v-810.35c0-28.316 10.026-53.032 25.929-71.545l450.193 476.721-450.191 476.715zM202.205-51.223c-27.052-15.339-56.387-16.12-81.773-6.322l443.503 469.639 158.843-168.2-520.573-295.117z" />
<glyph unicode="&#xe92e;" glyph-name="logout" d="M401.822 691.686c0 87.113 0 130.669 16.953 163.943 14.913 29.268 38.707 53.063 67.975 67.975 33.274 16.953 76.827 16.953 163.943 16.953h124.436c87.116 0 130.668 0 163.944-16.953 29.268-14.913 53.061-38.707 67.973-67.975 16.954-33.272 16.954-76.829 16.954-163.943v-487.373c0-87.116 0-130.668-16.954-163.944-14.912-29.268-38.705-53.061-67.973-67.973-33.276-16.954-76.828-16.954-163.944-16.954h-124.436c-87.116 0-130.668 0-163.943 16.954-29.268 14.912-53.063 38.705-67.975 67.973-16.953 33.276-16.953 76.828-16.953 163.944v75.18h207.393c93.062 0 168.507 75.444 168.507 168.507s-75.444 168.507-168.507 168.507h-207.393v75.18zM266.181 557.717c25.31 25.31 25.31 66.346 0 91.655s-66.346 25.31-91.655 0l-155.544-155.543c-25.31-25.312-25.31-66.345 0-91.657l155.544-155.544c25.31-25.308 66.346-25.308 91.655 0 25.31 25.312 25.31 66.345 0 91.657l-44.906 44.906h387.94c35.796 0 64.81 29.014 64.81 64.81s-29.014 64.81-64.81 64.81h-387.94l44.906 44.906z" />
<glyph unicode="&#xe92f;" glyph-name="link" d="M845.713 781.717c57.928-57.924 57.928-151.839 0-209.765l-171.626-171.624c-53.445-53.451-137.64-57.599-195.778-12.357-29.385 22.869-71.741 17.583-94.612-11.801-22.868-29.385-17.585-71.746 11.799-94.616 111.139-86.492 271.794-78.715 373.939 23.424l171.626 171.626c110.58 110.583 110.58 289.874 0 400.458-110.585 110.583-289.877 110.583-400.457 0l-19.072-19.070c-26.332-26.329-26.332-69.018 0-95.346s69.017-26.329 95.349 0l19.067 19.070c57.928 57.924 151.842 57.924 209.765 0zM178.286 114.283c-57.924 57.928-57.924 151.842 0 209.765l171.624 171.626c53.449 53.451 137.643 57.599 195.776 12.357 29.39-22.869 71.746-17.583 94.616 11.801s17.589 71.745-11.796 94.614c-111.147 86.495-271.8 78.718-373.942-23.424l-171.624-171.624c-110.583-110.585-110.583-289.877 0-400.457 110.583-110.585 289.874-110.585 400.456 0l19.072 19.067c26.327 26.332 26.327 69.017 0 95.349-26.332 26.327-69.017 26.327-95.349 0l-19.068-19.072c-57.924-57.923-151.839-57.923-209.765 0z" />
<glyph unicode="&#xe930;" glyph-name="linkedin" d="M158 102.665h154v462.667h-154v-462.667zM322 707.998c-0.444 23.111-8.444 42.222-24 57.334s-36.222 22.667-61.999 22.667c-25.778 0-46.778-7.555-63-22.667s-24.334-34.223-24.334-57.334c0-22.667 7.889-41.666 23.666-57s36.334-23 61.667-23h0.667c26.222 0 47.333 7.667 63.334 23s24 34.333 24 57zM711.998 102.665h154.004v265.333c0 68.444-16.225 120.223-48.671 155.335-32.441 35.108-75.33 52.664-128.665 52.664-60.442 0-106.89-25.999-139.331-77.998h1.331v67.331h-154c1.333-29.335 1.333-183.556 0-462.667h154v258.667c0 16.885 1.556 29.333 4.669 37.336 6.666 15.554 16.666 28.775 29.998 39.665s29.778 16.333 49.331 16.333c51.558 0 77.333-34.888 77.333-104.668v-247.332zM1024.001 767.999v-640c0-52.89-18.78-98.11-56.335-135.665-37.555-37.56-82.775-56.335-135.665-56.335h-640c-52.889 0-98.111 18.775-135.667 56.335-37.555 37.555-56.333 82.775-56.333 135.665v640c0 52.889 18.778 98.111 56.333 135.667s82.777 56.333 135.667 56.333h640c52.89 0 98.11-18.778 135.665-56.333s56.335-82.777 56.335-135.667z" />
<glyph unicode="&#xe931;" glyph-name="external-link" d="M607.561 835.21c-34.457 0-62.395 27.935-62.395 62.395s27.938 62.395 62.395 62.395h352.96c34.457 0 62.395-27.935 62.395-62.395v-352.96c0-34.457-27.938-62.395-62.395-62.395-34.462 0-62.395 27.938-62.395 62.395v202.327l-317.036-317.038c-24.369-24.364-63.872-24.364-88.241 0-24.364 24.369-24.364 63.878 0 88.241l317.036 317.036h-202.324zM299.867 959.276h37.429c34.46 0 62.395-27.935 62.395-62.395s-27.935-62.395-62.395-62.395h-34.942c-42.962 0-71.432-0.048-93.273-1.833-21.112-1.726-30.478-4.756-36.233-7.689-16.436-8.375-29.8-21.738-38.175-38.175-2.932-5.755-5.963-15.121-7.689-36.233-1.784-21.84-1.833-50.309-1.833-93.273v-419.294c0-42.962 0.048-71.434 1.833-93.273 1.726-21.114 4.756-30.478 7.689-36.234 8.375-16.437 21.738-29.8 38.175-38.175 5.755-2.931 15.121-5.959 36.233-7.687 21.84-1.782 50.311-1.832 93.273-1.832h419.294c42.962 0 71.434 0.050 93.273 1.832 21.114 1.727 30.478 4.757 36.234 7.687 16.437 8.375 29.8 21.738 38.175 38.175 2.931 5.755 5.959 15.12 7.687 36.234 1.782 21.839 1.832 50.311 1.832 93.273v34.942c0 34.457 27.933 62.395 62.395 62.395s62.395-27.938 62.395-62.395v-37.432c0-39.813 0-73.416-2.246-100.945-2.356-28.831-7.487-56.444-20.875-82.725-20.341-39.918-52.791-72.368-92.709-92.709-26.281-13.387-53.899-18.518-82.725-20.875-27.529-2.246-61.132-2.246-100.945-2.246h-424.274c-39.813 0-73.416 0-100.945 2.246-28.83 2.356-56.447 7.487-82.725 20.875-39.917 20.341-72.37 52.791-92.71 92.709-13.39 26.281-18.52 53.899-20.875 82.725-2.25 27.529-2.249 61.132-2.247 100.945v424.273c-0.001 39.813-0.001 73.417 2.247 100.946 2.355 28.829 7.485 56.446 20.875 82.724 20.339 39.917 52.793 72.371 92.71 92.71 26.278 13.39 53.895 18.52 82.725 20.875 27.529 2.25 61.133 2.249 100.948 2.247z" />
<glyph unicode="&#xe932;" glyph-name="list" d="M952.559 186.047c39.455 0 71.442-31.987 71.442-71.442s-31.987-71.442-71.442-71.442h-619.163c-39.456 0-71.442 31.987-71.442 71.442s31.986 71.442 71.442 71.442h619.163zM952.559 519.443c39.455 0 71.442-31.987 71.442-71.442s-31.987-71.442-71.442-71.442h-619.163c-39.456 0-71.442 31.987-71.442 71.442s31.986 71.442 71.442 71.442h619.163zM952.559 852.839c39.455 0 71.442-31.986 71.442-71.442s-31.987-71.442-71.442-71.442h-619.163c-39.456 0-71.442 31.986-71.442 71.442s31.986 71.442 71.442 71.442h619.163zM95.256 686.14c52.608 0 95.255 42.647 95.255 95.255s-42.647 95.255-95.255 95.255c-52.608 0-95.255-42.647-95.255-95.255s42.647-95.255 95.255-95.255zM190.512 448.001c0-52.61-42.647-95.255-95.255-95.255s-95.255 42.646-95.255 95.255c0 52.61 42.647 95.255 95.255 95.255s95.255-42.646 95.255-95.255zM190.512 114.605c0-52.61-42.647-95.255-95.255-95.255s-95.255 42.646-95.255 95.255c0 52.61 42.647 95.255 95.255 95.255s95.255-42.646 95.255-95.255z" />
<glyph unicode="&#xe933;" glyph-name="mail" d="M16.742 799.333c14.726 28.902 38.224 52.399 67.126 67.126 32.856 16.741 75.869 16.741 161.893 16.741h532.48c86.027 0 129.035 0 161.894-16.741 28.902-14.726 52.398-38.224 67.123-67.126 16.742-32.856 16.742-75.869 16.742-161.893v-378.88c0-86.027 0-129.035-16.742-161.894-14.725-28.902-38.221-52.398-67.123-67.123-32.86-16.742-75.868-16.742-161.894-16.742h-532.48c-86.024 0-129.036 0-161.893 16.742-28.902 14.725-52.399 38.221-67.126 67.123-16.741 32.86-16.741 75.868-16.741 161.894v378.88c0 86.024 0 129.036 16.741 161.893zM236.581 718.544c-22.17 17.551-54.371 13.807-71.923-8.364s-13.807-54.371 8.364-71.923l307.2-243.198c18.622-14.746 44.939-14.746 63.559 0l307.2 243.198c22.17 17.552 25.918 49.753 8.36 71.923-17.551 22.171-49.751 25.915-71.921 8.364l-275.421-218.042-275.421 218.042z" />
<glyph unicode="&#xe934;" glyph-name="plus-round" d="M512 960c282.771 0 512-229.23 512-512s-229.228-512-512-512c-282.77 0-512 229.228-512 512 0 282.77 229.23 512 512 512zM559.628 686.139c0 26.304-21.323 47.628-47.628 47.628s-47.628-21.324-47.628-47.628v-190.512h-190.512c-26.304 0-47.628-21.323-47.628-47.628s21.324-47.628 47.628-47.628h190.512v-190.512c0-26.305 21.323-47.628 47.628-47.628s47.628 21.323 47.628 47.628v190.512h190.512c26.305 0 47.628 21.323 47.628 47.628s-21.323 47.628-47.628 47.628h-190.512v190.512z" />
<glyph unicode="&#xe935;" glyph-name="plus" d="M512 959.999c40.398 0 73.142-32.747 73.142-73.142v-365.715h365.715c40.398 0 73.142-32.744 73.142-73.142s-32.744-73.142-73.142-73.142h-365.715v-365.715c0-40.398-32.744-73.142-73.142-73.142s-73.142 32.744-73.142 73.142v365.715h-365.715c-40.395 0-73.142 32.744-73.142 73.142s32.747 73.142 73.142 73.142h365.715v365.715c0 40.395 32.744 73.142 73.142 73.142z" />
<glyph unicode="&#xe936;" glyph-name="statistic-alternative" d="M512 960.001c59.533 0 107.789-48.259 107.789-107.789v-808.421c0-59.533-48.258-107.789-107.789-107.789s-107.789 48.258-107.789 107.789v808.421c0 59.53 48.258 107.789 107.789 107.789zM134.737 636.632c59.53 0 107.789-48.259 107.789-107.789v-485.052c0-59.533-48.259-107.789-107.789-107.789s-107.789 48.258-107.789 107.789v485.052c0 59.53 48.259 107.789 107.789 107.789zM997.052 528.842c0 59.53-48.258 107.789-107.789 107.789s-107.789-48.259-107.789-107.789v-485.052c0-59.533 48.258-107.789 107.789-107.789s107.789 48.258 107.789 107.789v485.052z" />
<glyph unicode="&#xe937;" glyph-name="refresh-single" d="M926.965 960c33.269 0 60.235-26.968 60.235-60.235v-277.082c0-33.267-26.966-60.235-60.235-60.235h-19.675c-0.844-0.018-1.686-0.018-2.53 0h-230.783c-33.269 0-60.235 26.968-60.235 60.235s26.966 60.235 60.235 60.235h118.12c-68.283 74.115-166.124 120.471-274.731 120.471-206.256 0-373.459-167.203-373.459-373.459s167.203-373.459 373.459-373.459c177.655 0 326.47 124.109 364.207 290.411 7.358 32.44 39.63 52.776 72.070 45.413s52.776-39.63 45.413-72.070c-49.913-219.97-246.551-384.224-481.69-384.224-272.79 0-493.929 221.141-493.929 493.929s221.14 493.929 493.929 493.929c136.499 0 260.010-55.373 349.365-144.786v120.692c0 33.267 26.966 60.235 60.235 60.235z" />
<glyph unicode="&#xe938;" glyph-name="home" d="M470.124 916.891c27.194 8.978 56.555 8.978 83.749 0 14.657-4.839 26.94-12.463 38.498-21.049 10.881-8.084 23.191-18.638 37.341-30.766l378.737-324.636c14.148-12.125 19.247-31.776 12.783-49.249-6.464-17.475-23.124-29.077-41.757-29.077h-22.26v-308.766c0.004-21.5 0.004-40.048-1.145-55.363-1.211-16.144-3.878-32.247-11.121-47.963-13.317-28.881-36.499-52.063-65.38-65.376-15.712-7.244-31.816-9.911-47.963-11.121-15.315-1.149-33.863-1.149-55.358-1.149h-108.423c-11.807 0-23.129 4.693-31.482 13.040-8.348 8.348-13.040 19.674-13.040 31.482v195.895c0 0.477 0 0.949 0 1.416 0 22.706-0.045 37.505-0.895 48.858-0.837 11.126-2.257 15.311-3.192 17.342-4.439 9.626-12.168 17.354-21.793 21.793-2.031 0.935-6.211 2.355-17.342 3.188-11.585 0.872-26.762 0.899-50.274 0.899h-35.617c-23.507 0-38.685-0.027-50.269-0.895-11.131-0.837-15.311-2.257-17.342-3.192-9.627-4.439-17.355-12.168-21.793-21.793-0.935-2.031-2.357-6.215-3.192-17.342-0.868-11.589-0.897-26.766-0.897-50.274v-195.895c0-24.589-19.934-44.522-44.522-44.522h-108.421c-21.498 0-40.044 0-55.359 1.149-16.145 1.211-32.25 3.878-47.962 11.121-28.881 13.312-52.063 36.495-65.378 65.376-7.244 15.716-9.911 31.82-11.122 47.963-1.148 15.315-1.148 33.863-1.147 55.363v308.766h-22.26c-18.631 0-35.292 11.602-41.756 29.077-6.464 17.473-1.364 37.124 12.782 49.249l378.737 324.636c14.148 12.128 26.46 22.682 37.343 30.766 11.558 8.586 23.841 16.209 38.498 21.049z" />
<glyph unicode="&#xe939;" glyph-name="search" d="M151.21 544.978c0 145.699 118.113 263.813 263.813 263.813s263.813-118.113 263.813-263.813c0-145.701-118.113-263.813-263.813-263.813s-263.813 118.113-263.813 263.813zM415.023 960c-229.211 0-415.023-185.813-415.023-415.023s185.813-415.024 415.023-415.024c87.291 0 168.284 26.946 235.125 72.981l244.785-244.792c29.529-29.523 77.395-29.523 106.924 0 29.523 29.529 29.523 77.395 0 106.924l-244.792 244.785c46.035 66.841 72.981 147.835 72.981 235.125 0 229.211-185.813 415.023-415.024 415.023z" />
<glyph unicode="&#xe93a;" glyph-name="settings" d="M546.863-64.001c46.053 0 87.352 28.365 103.882 71.346 26.971 70.131 99.279 111.874 173.497 100.17 45.493-7.173 90.704 14.411 113.731 54.294l34.861 60.381c23.031 39.883 19.113 89.832-9.844 125.64-47.247 58.421-47.247 141.917 0 200.337 28.957 35.81 32.875 85.757 9.844 125.642l-34.861 60.381c-23.026 39.885-68.238 61.468-113.731 54.293-74.217-11.705-146.525 30.041-173.497 100.168-16.531 42.985-57.83 71.348-103.882 71.348h-69.725c-46.053 0-87.351-28.364-103.884-71.349-26.972-70.127-99.279-111.873-173.496-100.168-45.491 7.175-90.704-14.408-113.732-54.293l-34.861-60.38c-23.027-39.885-19.112-89.832 9.847-125.642 47.246-58.42 47.246-141.916 0-200.337-28.96-35.809-32.874-85.758-9.847-125.64l34.861-60.381c23.027-39.883 68.24-61.467 113.733-54.294 74.218 11.705 146.524-30.039 173.496-100.165 16.533-42.986 57.83-71.351 103.888-71.351h69.721zM356.174 448c0 86.061 69.768 155.826 155.828 155.826 86.056 0 155.826-69.766 155.826-155.826s-69.766-155.826-155.826-155.826c-86.061 0-155.828 69.766-155.828 155.826z" />
<glyph unicode="&#xe93b;" glyph-name="share-alternative" d="M467.847 941.712c24.386 24.384 63.917 24.384 88.304 0l249.756-249.756c24.382-24.384 24.382-63.918 0-88.301-24.386-24.384-63.917-24.384-88.304 0l-143.165 143.165v-448.673c0-34.486-27.952-62.439-62.439-62.439s-62.439 27.952-62.439 62.439v448.673l-143.166-143.165c-24.384-24.384-63.918-24.384-88.301 0s-24.384 63.918 0 88.301l249.754 249.756zM62.438 360.586c34.484 0 62.439-27.952 62.439-62.439v-59.941c0-42.993 0.048-71.485 1.835-93.339 1.727-21.129 4.759-30.5 7.694-36.26 8.381-16.449 21.753-29.821 38.202-38.202 5.759-2.933 15.132-5.964 36.259-7.693 21.856-1.783 50.346-1.833 93.339-1.833h419.59c42.993 0 71.485 0.050 93.339 1.833 21.129 1.728 30.5 4.76 36.26 7.693 16.449 8.381 29.821 21.753 38.202 38.202 2.933 5.759 5.964 15.131 7.693 36.26 1.783 21.854 1.833 50.346 1.833 93.339v59.941c0 34.486 27.952 62.439 62.439 62.439s62.439-27.952 62.439-62.439v-62.434c0-39.841 0-73.468-2.248-101.017-2.358-28.847-7.493-56.484-20.889-82.784-20.356-39.941-52.828-72.419-92.775-92.775-26.299-13.397-53.937-18.532-82.784-20.889-27.548-2.248-61.175-2.248-101.017-2.248h-424.574c-39.841 0-73.468 0-101.017 2.248-28.85 2.358-56.487 7.493-82.784 20.889-39.945 20.356-72.421 52.834-92.776 92.775-13.399 26.299-18.533 53.937-20.889 82.784-2.251 27.548-2.25 61.175-2.249 101.017v62.434c0 34.486 27.955 62.439 62.439 62.439z" />
<glyph unicode="&#xe93c;" glyph-name="star" d="M436.952 851.137c24.114 48.857 36.171 73.287 52.538 81.092 14.238 6.791 30.783 6.791 45.026 0 16.367-7.805 28.424-32.233 52.538-81.092l82.265-166.687c7.124-14.437 10.687-21.655 15.896-27.258 4.608-4.96 10.138-8.979 16.283-11.831 6.937-3.221 14.903-4.379 30.836-6.694l183.951-26.73c53.919-7.835 80.873-11.752 93.354-24.907 10.86-11.446 15.974-27.181 13.913-42.823-2.365-17.979-21.87-36.991-60.886-75.024l-133.108-129.75c-11.529-11.236-17.293-16.853-21.012-23.539-3.29-5.921-5.403-12.418-6.219-19.145-0.921-7.595 0.439-15.524 3.164-31.396l31.422-183.208c9.212-53.7 13.814-80.548 5.158-96.482-7.527-13.867-20.913-23.591-36.427-26.467-17.827-3.306-41.94 9.369-90.164 34.722l-164.535 86.502c-14.248 7.491-21.374 11.236-28.879 12.711-6.648 1.302-13.484 1.302-20.128 0-7.507-1.475-14.631-5.22-28.885-12.711l-164.528-86.497c-48.226-25.354-72.338-38.033-90.167-34.727-15.512 2.877-28.897 12.6-36.427 26.467-8.654 15.933-4.049 42.783 5.16 96.482l31.423 183.208c2.722 15.87 4.082 23.8 3.163 31.396-0.815 6.727-2.928 13.223-6.219 19.145-3.72 6.685-9.484 12.303-21.013 23.539l-133.108 129.75c-39.015 38.033-58.523 57.045-60.888 75.024-2.057 15.642 3.055 31.377 13.913 42.823 12.48 13.155 39.439 17.073 93.357 24.907l183.951 26.73c15.931 2.315 23.898 3.473 30.836 6.694 6.142 2.853 11.672 6.87 16.285 11.831 5.208 5.603 8.769 12.821 15.896 27.258l82.265 166.689z" />
<glyph unicode="&#xe93d;" glyph-name="thumbs-up" d="M879.235 549.258c-25.671 28.523-59.9 42.786-96.98 42.786h-262.419c-5.705 0-8.557 2.852-11.409 5.705-2.852 5.705-2.852 11.409 0 17.114 22.819 51.343 37.080 96.98 48.491 154.028 8.557 31.377 11.409 51.343 11.409 71.309 0 82.719-62.752 114.095-94.128 119.8-5.705 0-11.409 0-14.262-5.705-2.852-2.852-182.552-262.419-253.862-333.728-59.9-57.048-94.128-128.354-94.128-199.663v-188.257c0-162.585 134.062-296.647 299.499-296.647h265.271c94.128 0 171.142 68.457 185.405 162.585l48.491 347.99c5.705 37.080-5.705 74.162-31.377 102.683z" />
<glyph unicode="&#xe93e;" glyph-name="user" d="M512 959.999c-124.945 0-226.233-101.288-226.233-226.233s101.288-226.233 226.233-226.233c124.947 0 226.233 101.288 226.233 226.233s-101.286 226.233-226.233 226.233zM512 412.278c-347.431 0-500.093-189.145-500.093-309.581 0-47.181 9.929-92.17 42.229-124.471 32.3-32.296 77.291-42.227 124.469-42.227h666.791c61.602 0 117.732 17.532 147.056 72.995 14.584 27.577 19.642 59.839 19.642 93.703 0 120.437-152.661 309.581-500.093 309.581z" />
<glyph unicode="&#xe93f;" glyph-name="heart" d="M557.963-3.614l0.098 0.049c50.123 26.98 164.806 94.181 267.567 194.992 102.28 100.339 198.372 239.612 198.372 410.13 0 150.209-101.719 311.653-289.391 311.653-95.165 0-170.577-49.178-222.609-126.806-52.033 77.628-127.442 126.806-222.609 126.806-187.671 0-289.391-161.444-289.391-311.653 0-170.518 96.091-309.791 198.373-410.13 102.824-100.873 217.587-168.096 267.664-195.041l1.581-0.859c6.611-3.589 16.189-8.788 28.369-11.224 10.088-2.017 21.94-2.017 32.029 0 12.182 2.435 21.758 7.635 28.369 11.224l1.581 0.859z" />
<glyph unicode="&#xe940;" glyph-name="instagram" d="M284.446 959.999c-157.071 0-284.445-127.374-284.445-284.445v-455.109c0-157.071 127.374-284.445 284.445-284.445h455.11c157.071 0 284.445 127.374 284.445 284.445v455.109c0 157.071-127.374 284.445-284.445 284.445h-455.11zM853.332 846.221c31.406 0 56.893-25.487 56.893-56.888s-25.487-56.889-56.893-56.889c-31.4 0-56.888 25.487-56.888 56.889s25.487 56.888 56.888 56.888zM511.999 732.444c157.071 0 284.445-127.374 284.445-284.446s-127.374-284.44-284.445-284.44c-157.068 0-284.443 127.37-284.443 284.44 0 157.073 127.374 284.446 284.443 284.446zM511.999 618.665c-45.26 0-88.672-17.981-120.677-49.987-32.006-32.004-49.987-75.416-49.987-120.682 0-45.26 17.982-88.672 49.987-120.677s75.417-49.986 120.677-49.986c45.266 0 88.678 17.982 120.683 49.986s49.986 75.417 49.986 120.677c0 45.266-17.982 88.678-49.986 120.682-32.005 32.006-75.417 49.987-120.683 49.987z" />
<glyph unicode="&#xe941;" glyph-name="lock" d="M371.202 677.416v-81.723h281.601v81.723c0 90.081-66.233 154.584-140.8 154.584s-140.8-64.504-140.8-154.584zM780.802 677.416v-81.753c18.35-0.083 34.975-0.397 49.428-1.578 21.032-1.718 43.039-5.586 64.517-16.529 31.309-15.954 56.766-41.41 72.719-72.719 10.942-21.479 14.807-43.484 16.528-64.517 1.613-19.706 1.608-43.453 1.608-70.119v-208.712c0-26.66 0.005-50.406-1.608-70.119-1.721-21.032-5.586-43.039-16.528-64.517-15.954-31.309-41.411-56.766-72.719-72.719-21.479-10.942-43.484-14.807-64.517-16.528-19.712-1.613-43.458-1.608-70.119-1.608h-496.22c-26.664 0-50.41-0.005-70.119 1.608-21.034 1.721-43.038 5.586-64.516 16.528-31.31 15.954-56.766 41.411-72.72 72.719-10.944 21.479-14.81 43.484-16.529 64.517-1.61 19.706-1.609 43.453-1.608 70.119v208.712c-0.001 26.665-0.002 50.412 1.608 70.119 1.718 21.032 5.586 43.039 16.529 64.517 15.954 31.309 41.41 56.766 72.72 72.719 21.478 10.944 43.483 14.81 64.516 16.529 14.453 1.181 31.075 1.495 49.428 1.578v81.753c0 152.791 115.813 282.585 268.8 282.585s268.8-129.793 268.8-282.585z" />
<glyph unicode="&#xe942;" glyph-name="country" d="M561.386 957.649c-16.253 1.556-32.724 2.351-49.386 2.351s-33.134-0.796-49.388-2.351c-10.691-30.468-24.204-71.74-37.724-120.411-12.128-43.661-24.161-92.926-34.179-145.425h242.581c-10.015 52.5-22.050 101.765-34.178 145.425-13.522 48.671-27.034 89.943-37.727 120.411zM352.099 934.537c-124.934-41.035-228.649-128.849-290.433-242.725h229.861c11.285 62.816 25.398 121.14 39.395 171.528 7.184 25.859 14.368 49.742 21.178 71.197zM21.203 594.288c-13.795-46.352-21.203-95.455-21.203-146.288 0-50.829 7.408-99.932 21.202-146.285h255.843c-5.539 47.762-8.854 96.953-8.854 146.285 0 49.339 3.316 98.527 8.854 146.288h-255.842zM61.664 204.191c61.782-113.878 165.501-201.694 290.437-242.727-6.81 21.455-13.995 45.339-21.179 71.203-13.996 50.385-28.109 108.709-39.395 171.525h-229.863zM462.613-61.65c16.253-1.556 32.724-2.35 49.387-2.35s33.134 0.795 49.386 2.35c10.693 30.471 24.205 71.743 37.727 120.418 12.127 43.662 24.161 92.926 34.178 145.423h-242.581c10.016-52.497 22.050-101.762 34.179-145.423 13.521-48.675 27.035-89.947 37.726-120.418zM671.9-38.537c124.933 41.033 228.655 128.849 290.436 242.727h-229.863c-11.284-62.815-25.395-121.139-39.395-171.525-7.182-25.864-14.37-49.747-21.178-71.203zM1002.798 301.715c13.795 46.353 21.202 95.456 21.202 146.285 0 50.833-7.407 99.937-21.202 146.288h-255.844c5.54-47.761 8.856-96.95 8.856-146.288 0-49.332-3.316-98.523-8.856-146.285h255.844zM962.336 691.811c-61.787 113.876-165.503 201.69-290.436 242.725 6.812-21.455 13.995-45.338 21.178-71.197 13.999-50.387 28.111-108.711 39.395-171.528h229.863zM365.715 448c0 49.099 3.596 98.368 9.553 146.288h273.465c5.959-47.92 9.552-97.19 9.552-146.288 0-49.094-3.593-98.362-9.552-146.285h-273.465c-5.957 47.923-9.553 97.192-9.553 146.285z" />
<glyph unicode="&#xe943;" glyph-name="chevron-left" d="M242.396 401.566c-25.632 25.632-25.632 67.201 0 92.833l446.375 446.376c25.632 25.632 67.201 25.632 92.833 0s25.632-67.201 0-92.833l-399.942-399.943 399.942-399.942c25.632-25.632 25.632-67.201 0-92.833s-67.201-25.632-92.833 0l-446.375 446.343z" />
<glyph unicode="&#xe944;" glyph-name="chevron-right" d="M781.6 494.41c25.632-25.632 25.632-67.2 0-92.832l-446.368-446.368c-25.632-25.632-67.2-25.632-92.832 0s-25.632 67.2 0 92.832l399.936 399.936-399.936 399.935c-25.632 25.632-25.632 67.2 0 92.832s67.2 25.632 92.832 0l446.368-446.335z" />
<glyph unicode="&#xe945;" glyph-name="bottle-outline" d="M335.064 838.34h57.598c22.207 0 40.191-18.015 40.191-40.191v-52.83h-138.012v52.862c0 22.207 18.047 40.159 40.223 40.159zM816.038 520.74c0.138 64.299-40.991 103.747-76.996 108.122h-61.374v0.627h-59.684c-1.136-0.173-2.259-0.349-3.376-0.563 37.583-36.441 62.331-85.815 66.936-141.058l0.749-18.812v-466.737h133.746v518.422zM880.036-30.18c0-17.375-14.093-31.5-31.5-31.5h-230.243v530.735c0 71.934-47.717 132.745-114.37 152.744l0.374 0.688c22.367 38.263 61.726 65.362 108.435 70.998h1.686v150.87h127.247v-151.495h1.626c76.44-7.047 136.937-81.466 136.745-172.245v-550.796zM367.833 656.042h-8.998v-29.81c-0.115-20.357-7.11-39.023-18.377-53.748l-5.373 3.373 4.938-3.875c-12.339-15.744-30.037-27.257-50.624-31.621l-0.75-0.189h-0.125l-0.812-0.189-0.75-0.125c-45.412-7.914-78.856-46.732-78.998-92.935v-446.924h310.927v447.487c0 46.108-33.436 84.525-77.435 92.122l-1.69 0.25-2.061 0.438c-37.125 7.821-66.020 39.010-69.499 78.062l-0.374 7.936v29.749zM431.832 626.292c0-11.485 8.122-21.068 19.061-23.375l0.874-0.125c74.43-12.576 131.122-77.326 131.122-155.307v-472.923l-0.749-7.75c-3.597-17.577-19.193-30.812-37.813-30.812h-362.238l-7.688 0.877c-17.371 3.648-30.436 19.045-30.436 37.5v472.734c0.22 73.099 49.903 134.54 118.121 152.744l13.875 3.062 0.188 0.064c5.42 1.155 10.147 4.166 13.5 8.438 3.226 4.214 5.149 9.408 5.188 15.123v93.498h136.996v-93.747zM650.478 960h55.326c19.903 0 36.063-16.159 36.063-36.063v-53.886h-127.452v53.47c0 0.128 0 0.256 0 0.416 0 19.903 16.159 36.063 36.063 36.063zM705.804 960c19.903 0 36.063-16.159 36.063-36.063v-53.886h-127.452v53.886c0 19.903 16.159 36.063 36.063 36.063h55.326z" />
<glyph unicode="&#xe946;" glyph-name="shopping-cart" d="M902.315 385.133l113.773 285.837c13.489 33.914 9.639 69.214-10.854 99.418s-51.876 46.813-88.355 46.813h-890.629c-14.495 0-26.25-11.756-26.25-26.25 0-14.53 11.756-26.25 26.25-26.25h184.236l151.085-379.534c16.506-41.472 54.58-67.271 99.174-67.271h342.359c44.629 0 82.704 25.8 99.174 67.271l0.035-0.034zM460.78 233.075c42.617 0 77.155-34.537 77.155-77.121 0-42.617-34.537-77.155-77.155-77.155-42.582 0-77.12 34.537-77.12 77.155 0 42.584 34.537 77.121 77.12 77.121zM803.14 233.075c42.617 0 77.155-34.537 77.155-77.121 0-42.617-34.537-77.155-77.155-77.155s-77.155 34.537-77.155 77.155c0 42.584 34.537 77.121 77.155 77.121z" />
</font>
</defs>
</svg>
